<?xml version="1.0" standalone="no"?>
<!DOCTYPE svg PUBLIC "-//W3C//DTD SVG 1.1//EN" "http://www.w3.org/Graphics/SVG/1.1/DTD/svg11.dtd" >
<svg xmlns="http://www.w3.org/2000/svg" xmlns:xlink="http://www.w3.org/1999/xlink" version="1.1">
<metadata>
Created by FontForge 20190801 at Fri Apr  9 09:20:25 2021
 By www-data
Copyright 2017-2021 Indian Type Foundry. All rights reserved.
</metadata>
<defs>
<font id="ClashGroteskSemibold" horiz-adv-x="589" >
  <font-face 
    font-family="ClashGroteskSemibold"
    font-weight="600"
    font-stretch="normal"
    units-per-em="1000"
    panose-1="0 0 0 0 0 0 0 0 0 0"
    ascent="800"
    descent="-200"
    x-height="503"
    cap-height="670"
    bbox="-185 -229 1619 890"
    underline-thickness="104"
    underline-position="-192"
    unicode-range="U+000D-FB04"
  />
<missing-glyph horiz-adv-x="598" 
d="M49 0v650h502v-650h-502zM136 595l164 -226l164 226h-328zM104 551v-452l164 226zM332 325l164 -226v452zM136 55h328l-164 226z" />
    <glyph glyph-name="f_f" unicode="ff" horiz-adv-x="671" 
d="M227 0h-150v379h-73v124h74q7 81 61 125t153 44q31 0 47 -2v-112h-62q-29 0 -42.5 -10.5t-13.5 -35.5v-9h180q7 81 61 125t153 44q31 0 47 -2v-112h-62q-29 0 -42.5 -10.5t-13.5 -35.5v-9h118v-124h-112v-379h-150v379h-173v-379z" />
    <glyph glyph-name="fi" unicode="fi" horiz-adv-x="574" 
d="M227 0h-150v379h-73v124h74q7 81 61 125t153 44q31 0 47 -2v-112h-62q-29 0 -42.5 -10.5t-13.5 -35.5v-9h118v-124h-112v-379zM533 560h-147l-2 110h149v-110zM536 0h-150v503h150v-503z" />
    <glyph glyph-name="fl" unicode="fl" horiz-adv-x="592" 
d="M227 0h-150v379h-73v124h74q7 81 61 125t153 44q31 0 47 -2v-112h-62q-29 0 -42.5 -10.5t-13.5 -35.5v-9h118v-124h-112v-379zM545 0h-149v670h149v-670z" />
    <glyph glyph-name="f_f_i" unicode="ffi" horiz-adv-x="897" 
d="M227 0h-150v379h-73v124h74q7 81 61 125t153 44q31 0 47 -2v-112h-62q-29 0 -42.5 -10.5t-13.5 -35.5v-9h180q7 81 61 125t153 44q31 0 47 -2v-112h-62q-29 0 -42.5 -10.5t-13.5 -35.5v-9h118v-124h-112v-379h-150v379h-173v-379zM856 560h-147l-2 110h149v-110zM859 0
h-150v503h150v-503z" />
    <glyph glyph-name="f_f_l" unicode="ffl" horiz-adv-x="914" 
d="M227 0h-150v379h-73v124h74q7 81 61 125t153 44q31 0 47 -2v-112h-62q-29 0 -42.5 -10.5t-13.5 -35.5v-9h180q7 81 61 125t153 44q31 0 47 -2v-112h-62q-29 0 -42.5 -10.5t-13.5 -35.5v-9h118v-124h-112v-379h-150v379h-173v-379zM868 0h-149v670h149v-670z" />
    <glyph glyph-name="f_t" unicode="ft" horiz-adv-x="704" 
d="M227 0h-150v379h-73v124h74q7 81 61 125t153 44q31 0 47 -2v-112h-62q-29 0 -42.5 -10.5t-13.5 -35.5v-9h171l28 117h118v-117h142v-124h-142v-197q0 -32 15 -40.5t65 -8.5h62v-125q-48 -10 -98 -10q-100 0 -147 39.5t-47 127.5v214h-161v-379z" />
    <glyph glyph-name="f_b" unicode="fb" horiz-adv-x="943" 
d="M227 0h-150v379h-73v124h74q7 81 61 125t153 44q31 0 47 -2v-112h-62q-29 0 -42.5 -10.5t-13.5 -35.5v-9h118v-124h-112v-379zM535 0h-139v670h149v-237h6q19 34 59 57t94 23q102 0 156.5 -70t54.5 -192q0 -121 -54.5 -191t-155.5 -70q-123 0 -165 84h-5v-74zM545 211
q0 -49 28 -71t83 -22q62 0 86 31t24 102q0 72 -23.5 103t-86.5 31q-55 0 -83 -22t-28 -71v-81z" />
    <glyph glyph-name="f_f_b" unicode="ffb" horiz-adv-x="1266" 
d="M227 0h-150v379h-73v124h74q7 81 61 125t153 44q31 0 47 -2v-112h-62q-29 0 -42.5 -10.5t-13.5 -35.5v-9h180q7 81 61 125t153 44q31 0 47 -2v-112h-62q-29 0 -42.5 -10.5t-13.5 -35.5v-9h118v-124h-112v-379h-150v379h-173v-379zM858 0h-139v670h149v-237h6q19 34 59 57
t94 23q102 0 156.5 -70t54.5 -192q0 -121 -54.5 -191t-155.5 -70q-123 0 -165 84h-5v-74zM868 211q0 -49 28 -71t83 -22q62 0 86 31t24 102q0 72 -23.5 103t-86.5 31q-55 0 -83 -22t-28 -71v-81z" />
    <glyph glyph-name="f_f_h" unicode="ffh" horiz-adv-x="1262" 
d="M227 0h-150v379h-73v124h74q7 81 61 125t153 44q31 0 47 -2v-112h-62q-29 0 -42.5 -10.5t-13.5 -35.5v-9h180q7 81 61 125t153 44q31 0 47 -2v-112h-62q-29 0 -42.5 -10.5t-13.5 -35.5v-9h118v-124h-112v-379h-150v379h-173v-379zM868 0h-149v670h149v-245h6
q22 38 63.5 63t98.5 25q93 0 138.5 -54t45.5 -140v-319h-150v289q0 53 -21.5 74t-77.5 21q-55 0 -79 -22t-24 -78v-284z" />
    <glyph glyph-name="f_f_j" unicode="ffj" horiz-adv-x="919" 
d="M227 0h-150v379h-73v124h74q7 81 61 125t153 44q31 0 47 -2v-112h-62q-29 0 -42.5 -10.5t-13.5 -35.5v-9h180q7 81 61 125t153 44q31 0 47 -2v-112h-62q-29 0 -42.5 -10.5t-13.5 -35.5v-9h118v-124h-112v-379h-150v379h-173v-379zM873 560h-150v110h150v-110zM626 -168
v126h40q37 0 47 8t10 36v501h150v-478q0 -108 -52 -151.5t-152 -43.5q-17 0 -43 2z" />
    <glyph glyph-name="f_f_k" unicode="ffk" horiz-adv-x="1226" 
d="M227 0h-150v379h-73v124h74q7 81 61 125t153 44q31 0 47 -2v-112h-62q-29 0 -42.5 -10.5t-13.5 -35.5v-9h180q7 81 61 125t153 44q31 0 47 -2v-112h-62q-29 0 -42.5 -10.5t-13.5 -35.5v-9h118v-124h-112v-379h-150v379h-173v-379zM868 0h-149v670h149v-353h74l114 186
h172l-164 -240l163 -263h-172l-110 183h-77v-183z" />
    <glyph glyph-name="f_h" unicode="fh" horiz-adv-x="940" 
d="M227 0h-150v379h-73v124h74q7 81 61 125t153 44q31 0 47 -2v-112h-62q-29 0 -42.5 -10.5t-13.5 -35.5v-9h118v-124h-112v-379zM545 0h-149v670h149v-245h6q22 38 63.5 63t98.5 25q93 0 138.5 -54t45.5 -140v-319h-150v289q0 53 -21.5 74t-77.5 21q-55 0 -79 -22t-24 -78
v-284z" />
    <glyph glyph-name="f_j" unicode="fj" horiz-adv-x="596" 
d="M227 0h-150v379h-73v124h74q7 81 61 125t153 44q31 0 47 -2v-112h-62q-29 0 -42.5 -10.5t-13.5 -35.5v-9h118v-124h-112v-379zM550 560h-150v110h150v-110zM303 -168v126h40q37 0 47 8t10 36v501h150v-478q0 -108 -52 -151.5t-152 -43.5q-17 0 -43 2z" />
    <glyph glyph-name="f_k" unicode="fk" horiz-adv-x="904" 
d="M227 0h-150v379h-73v124h74q7 81 61 125t153 44q31 0 47 -2v-112h-62q-29 0 -42.5 -10.5t-13.5 -35.5v-9h118v-124h-112v-379zM545 0h-149v670h149v-353h74l114 186h172l-164 -240l163 -263h-172l-110 183h-77v-183z" />
    <glyph glyph-name=".notdef" horiz-adv-x="598" 
d="M49 0v650h502v-650h-502zM136 595l164 -226l164 226h-328zM104 551v-452l164 226zM332 325l164 -226v452zM136 55h328l-164 226z" />
    <glyph glyph-name=".null" horiz-adv-x="0" 
 />
    <glyph glyph-name="nonmarkingreturn" horiz-adv-x="333" 
 />
    <glyph glyph-name="CR" unicode="&#xd;" horiz-adv-x="300" 
 />
    <glyph glyph-name="space" unicode=" " horiz-adv-x="190" 
 />
    <glyph glyph-name="exclam" unicode="!" horiz-adv-x="294" 
d="M222 220h-150q0 42 -10.5 192t-10.5 188v70h193v-70q0 -38 -11 -188.5t-11 -191.5zM233 0h-171v163h171v-163z" />
    <glyph glyph-name="quotedbl" unicode="&#x22;" horiz-adv-x="453" 
d="M380 381h-92l-31 145v144h155v-144zM164 381h-91l-32 145v144h155v-144z" />
    <glyph glyph-name="numbersign" unicode="#" horiz-adv-x="848" 
d="M234 0h-151l52 138h-95v134h141l36 98h-132v134h186l63 166h151l-63 -166h138l63 166h151l-62 -166h99v-134h-145l-37 -98h137v-134h-190l-53 -138h-150l51 138h-138zM360 381l-44 -120h171l44 120h-171z" />
    <glyph glyph-name="dollar" unicode="$" horiz-adv-x="619" 
d="M390 -100h-139v96q-204 29 -204 222v13h147v-10q0 -56 29 -75.5t119 -19.5q62 0 84 13.5t22 48.5q0 36 -18.5 51t-85.5 26l-118 21q-182 31 -182 191q0 75 51.5 130.5t155.5 68.5v94h139v-97q97 -17 144.5 -76.5t47.5 -148.5v-8h-148v11q0 53 -27 73t-101 20
q-63 0 -88 -14.5t-25 -46.5t18 -44.5t78 -23.5l119 -23q189 -36 189 -199q0 -78 -50.5 -133t-156.5 -67v-93z" />
    <glyph glyph-name="percent" unicode="%" horiz-adv-x="791" 
d="M194 348q-81 0 -128.5 44.5t-47.5 121.5t47.5 121.5t128.5 44.5t128 -44.5t47 -121.5t-47 -121.5t-128 -44.5zM223 0h-137l483 670h136zM194 450q36 0 49.5 13t13.5 51t-13.5 51t-49.5 13t-49.5 -13t-13.5 -51t13.5 -51t49.5 -13zM598 -10q-81 0 -128.5 44.5t-47.5 121.5
t47.5 121.5t128.5 44.5t128 -44.5t47 -121.5t-47 -121.5t-128 -44.5zM598 92q36 0 49.5 13t13.5 51t-13.5 51t-49.5 13t-49.5 -13t-13.5 -51t13.5 -51t49.5 -13z" />
    <glyph glyph-name="ampersand" unicode="&#x26;" horiz-adv-x="694" 
d="M289 544q-37 0 -54.5 -15.5t-17.5 -54.5t17.5 -53.5t54.5 -14.5h145v91h148v-91h102v-123h-102v-58q0 -115 -65 -175t-211 -60q-266 0 -266 194q0 72 40 113t105 50v5q-56 7 -86.5 49t-30.5 102q0 178 234 178h101v-137h-114zM314 127q73 0 96.5 19.5t23.5 78.5v58h-148
q-47 0 -70.5 -16.5t-23.5 -64.5q0 -45 25.5 -60t96.5 -15z" />
    <glyph glyph-name="quotesingle" unicode="'" horiz-adv-x="237" 
d="M164 381h-91l-32 145v144h155v-144z" />
    <glyph glyph-name="parenleft" unicode="(" horiz-adv-x="351" 
d="M333 2l-76 -74q-96 81 -154.5 177.5t-58.5 229.5t58.5 229.5t154.5 177.5l76 -74q-80 -87 -102 -150.5t-22 -182.5t22 -182.5t102 -150.5z" />
    <glyph glyph-name="parenright" unicode=")" horiz-adv-x="351" 
d="M16 668l76 74q96 -81 154.5 -177.5t58.5 -229.5t-58.5 -229.5t-154.5 -177.5l-76 74q80 87 102 150.5t22 182.5t-22 182.5t-102 150.5z" />
    <glyph glyph-name="asterisk" unicode="*" horiz-adv-x="452" 
d="M211 422l-54 -86l-87 63l65 78l-3 9l-98 25l33 102l96 -40l7 7l-7 101h107l-7 -101l7 -7l95 39l32 -102l-98 -24l-3 -9l65 -78l-87 -64l-53 87h-10z" />
    <glyph glyph-name="plus" unicode="+" horiz-adv-x="505" 
d="M317 112h-128v161h-160v124h160v161h128v-161h159v-124h-159v-161z" />
    <glyph glyph-name="comma" unicode="," horiz-adv-x="252" 
d="M86 -148h-50v98h46q16 0 23 6.5t7 25.5v18h-80v177h188v-193q0 -132 -134 -132z" />
    <glyph glyph-name="hyphen" unicode="-" horiz-adv-x="412" 
d="M392 231h-372v128h372v-128z" />
    <glyph glyph-name="period" unicode="." horiz-adv-x="252" 
d="M220 0h-188v177h188v-177z" />
    <glyph glyph-name="slash" unicode="/" horiz-adv-x="474" 
d="M138 -20h-158l360 710h158z" />
    <glyph glyph-name="zero" unicode="0" horiz-adv-x="705" 
d="M353 -10q-143 0 -222 93t-79 252q0 158 79 251.5t222 93.5q142 0 221 -93.5t79 -251.5q0 -159 -79 -252t-221 -93zM353 135q78 0 109 41.5t31 158.5t-31 158.5t-109 41.5q-79 0 -110 -41.5t-31 -158.5t31 -158.5t110 -41.5z" />
    <glyph glyph-name="one" unicode="1" horiz-adv-x="362" 
d="M316 0h-149v480h-151v107h30q48 0 79 19t55 64h136v-670z" />
    <glyph glyph-name="two" unicode="2" horiz-adv-x="633" 
d="M578 0h-524v90q0 47 14 83.5t42.5 63.5t56 44.5t68.5 37.5l116 55q45 21 62.5 41.5t17.5 52.5q0 39 -24 57t-87 18q-70 0 -93.5 -21.5t-23.5 -77.5v-17h-150v16q0 105 69 171t210 66q127 0 187.5 -57t60.5 -154q0 -79 -46 -129t-123 -85l-101 -44q-49 -22 -72.5 -39
t-23.5 -39l108 2h256v-135z" />
    <glyph glyph-name="three" unicode="3" horiz-adv-x="623" 
d="M313 -10q-146 0 -211.5 55.5t-65.5 159.5v22h147v-20q0 -47 25.5 -63t104.5 -16q66 0 95 16t29 60q0 47 -21 63t-72 16h-141v122h125q47 0 65 13.5t18 52.5q0 38 -26.5 54.5t-81.5 16.5q-67 0 -93.5 -17t-26.5 -62v-9h-147v11q0 100 71.5 157.5t199.5 57.5q120 0 187 -46
t67 -135q0 -129 -126 -143v-6q73 -7 113.5 -50t40.5 -116q0 -95 -73 -144.5t-203 -49.5z" />
    <glyph glyph-name="four" unicode="4" horiz-adv-x="652" 
d="M538 0h-150v127h-378v105l354 438h174v-408h96v-135h-96v-127zM199 262h189v226h-9l-180 -216v-10z" />
    <glyph glyph-name="five" unicode="5" horiz-adv-x="656" 
d="M326 -10q-133 0 -202 53.5t-69 148.5v8h149v-8q0 -36 30.5 -50.5t98.5 -14.5q71 0 99.5 21t28.5 72q0 52 -29.5 73t-100.5 21q-80 0 -138 -34l-133 18l20 372h492v-135h-359l-11 -146h4q56 52 175 52q110 0 168.5 -57.5t58.5 -158.5q0 -109 -68.5 -172t-213.5 -63z" />
    <glyph glyph-name="six" unicode="6" horiz-adv-x="654" 
d="M343 -10q-157 0 -224 87t-67 269q0 162 76 248t223 86q116 0 182 -57t66 -155v-8h-159v6q0 37 -25.5 53t-83.5 16q-72 0 -98 -33t-26 -108v-58h5q51 78 182 78q109 0 165.5 -53t56.5 -150q0 -103 -70.5 -162t-202.5 -59zM345 134q70 0 97 18t27 62q0 43 -27 61t-97 18
t-97.5 -18t-27.5 -61q0 -44 27.5 -62t97.5 -18z" />
    <glyph glyph-name="seven" unicode="7" horiz-adv-x="558" 
d="M282 -1h-164q0 83 16.5 158t40.5 128.5t60 103.5t64.5 80t64.5 61v5h-346v135h522v-124q-140 -129 -199 -253t-59 -294z" />
    <glyph glyph-name="eight" unicode="8" horiz-adv-x="628" 
d="M313 -10q-138 0 -211.5 49t-73.5 146q0 68 37 108.5t93 56.5v6q-48 8 -78 46.5t-30 96.5q0 83 66.5 132t197.5 49t197.5 -49t66.5 -132q0 -58 -30 -96.5t-78 -46.5v-6q56 -16 93 -56.5t37 -108.5q0 -97 -74 -146t-213 -49zM314 396q63 0 88.5 17.5t25.5 56.5t-25.5 56.5
t-88.5 17.5q-64 0 -89.5 -17.5t-25.5 -56.5t25.5 -56.5t89.5 -17.5zM314 125q78 0 106 19.5t28 65.5t-28 65t-106 19q-79 0 -106.5 -19t-27.5 -65t28 -65.5t106 -19.5z" />
    <glyph glyph-name="nine" unicode="9" horiz-adv-x="654" 
d="M330 -10q-118 0 -186 58t-68 155v6h159v-6q0 -37 24.5 -53.5t80.5 -16.5q71 0 95.5 31t24.5 112v58h-5q-53 -78 -183 -78q-108 0 -164.5 53t-56.5 150q0 103 70.5 162t202.5 59q158 0 224.5 -83t66.5 -265q0 -342 -285 -342zM323 377q70 0 97 18t27 61q0 44 -27 62
t-97 18q-71 0 -98 -18t-27 -62q0 -43 27 -61t98 -18z" />
    <glyph glyph-name="colon" unicode=":" horiz-adv-x="252" 
d="M228 325h-188v177h188v-177zM228 0h-188v177h188v-177z" />
    <glyph glyph-name="semicolon" unicode=";" horiz-adv-x="252" 
d="M228 325h-188v177h188v-177zM94 -148h-50v98h46q16 0 23 6.5t7 25.5v18h-80v177h188v-193q0 -132 -134 -132z" />
    <glyph glyph-name="less" unicode="&#x3c;" horiz-adv-x="506" 
d="M19 424l447 141v-140l-312 -85v-10l312 -85v-140l-447 141v178z" />
    <glyph glyph-name="equal" unicode="=" horiz-adv-x="505" 
d="M476 396h-447v123h447v-123zM476 151h-447v123h447v-123z" />
    <glyph glyph-name="greater" unicode="&#x3e;" horiz-adv-x="506" 
d="M476 246l-447 -141v140l312 85v10l-312 85v140l447 -141v-178z" />
    <glyph glyph-name="question" unicode="?" horiz-adv-x="577" 
d="M327 224h-150v22q0 49 19.5 76t66.5 49l59 29q43 20 59 34t16 43q0 35 -21.5 51t-79.5 16q-67 0 -93 -19t-26 -65v-16h-147v15q0 97 68.5 159t204.5 62q124 0 183.5 -54t59.5 -143q0 -117 -129 -174l-56 -24q-20 -9 -27 -19t-7 -27v-15zM339 0h-171v163h171v-163z" />
    <glyph glyph-name="at" unicode="@" horiz-adv-x="933" 
d="M413 42q-77 0 -116 56t-39 147q0 90 42 146.5t118 56.5q83 0 113 -75h5v67h130v-244q0 -43 43 -43q26 0 35.5 25t9.5 88q0 145 -66.5 204.5t-210.5 59.5q-151 0 -218.5 -64t-67.5 -222q0 -151 64 -212t205 -61q56 0 130 24l31 -114q-81 -30 -183 -30q-186 0 -287 102.5
t-101 290.5q0 190 118 303.5t318 113.5q187 0 293 -99.5t106 -265.5q0 -122 -49.5 -188.5t-146.5 -66.5q-116 0 -151 79h-4q-33 -78 -121 -78zM397 245q0 -51 15 -72t53 -21q33 0 47.5 14.5t14.5 48.5v59q0 34 -14.5 49t-47.5 15q-38 0 -53 -21.5t-15 -71.5z" />
    <glyph glyph-name="A" unicode="A" horiz-adv-x="716" 
d="M158 0h-156l247 670h218l247 -670h-163l-54 149h-284zM300 387l-38 -104h186l-38 104l-49 151h-10z" />
    <glyph glyph-name="B" unicode="B" horiz-adv-x="650" 
d="M393 0h-346v670h330q220 0 220 -167q0 -126 -134 -143v-10q79 -6 120 -51t41 -115q0 -86 -59 -135t-172 -49zM197 535v-130h170q44 0 62 13.5t18 51.5q0 39 -18 52t-62 13h-170zM197 283v-148h191q45 0 65 14.5t20 58.5q0 46 -19.5 60.5t-65.5 14.5h-191z" />
    <glyph glyph-name="C" unicode="C" horiz-adv-x="690" 
d="M353 -10q-150 0 -235.5 93.5t-85.5 251.5t85.5 251.5t235.5 93.5q147 0 226 -72t79 -198v-9h-160v5q0 72 -33 100.5t-113 28.5q-88 0 -124 -42t-36 -158t36 -158t124 -42q80 0 113 28.5t33 100.5v5h160v-9q0 -126 -79 -198t-226 -72z" />
    <glyph glyph-name="D" unicode="D" horiz-adv-x="678" 
d="M303 0h-256v670h256q162 0 254.5 -89t92.5 -246t-92.5 -246t-254.5 -89zM301 535h-104v-400h104q105 0 146.5 42t41.5 158t-41.5 158t-146.5 42z" />
    <glyph glyph-name="E" unicode="E" horiz-adv-x="596" 
d="M558 0h-511v670h511v-135h-361v-131h346v-134h-346v-135h361v-135z" />
    <glyph glyph-name="F" unicode="F" horiz-adv-x="576" 
d="M197 0h-150v670h503v-135h-353v-153h338v-134h-338v-248z" />
    <glyph glyph-name="G" unicode="G" horiz-adv-x="711" 
d="M325 -10q-143 0 -220 91.5t-77 253.5q0 158 87 251.5t239 93.5q147 0 226.5 -68t79.5 -189v-5h-159v4q0 63 -34 88t-116 25q-89 0 -126 -42.5t-37 -157.5q0 -117 39.5 -159.5t137.5 -42.5q83 0 118 20t35 78h-183v125h327v-356h-139v102h-6q-18 -46 -64.5 -79t-127.5 -33
z" />
    <glyph glyph-name="H" unicode="H" horiz-adv-x="686" 
d="M197 0h-150v670h150v-266h292v266h150v-670h-150v270h-292v-270z" />
    <glyph glyph-name="I" unicode="I" horiz-adv-x="244" 
d="M197 0h-150v670h150v-670z" />
    <glyph glyph-name="J" unicode="J" horiz-adv-x="585" 
d="M280 -10q-142 0 -206.5 68.5t-64.5 198.5v20h159v-27q0 -68 19.5 -91.5t87.5 -23.5q67 0 86.5 23.5t19.5 91.5v420h160v-407q0 -273 -261 -273z" />
    <glyph glyph-name="K" unicode="K" horiz-adv-x="653" 
d="M197 0h-150v670h150v-267h127l157 267h170l-202 -332l199 -338h-172l-150 258h-129v-258z" />
    <glyph glyph-name="L" unicode="L" horiz-adv-x="561" 
d="M543 0h-496v670h150v-535h346v-135z" />
    <glyph glyph-name="M" unicode="M" horiz-adv-x="862" 
d="M197 0h-150v670h211l117 -313l54 -172h10l53 172l112 313h211v-670h-150v317l8 129h-11l-39 -131l-101 -269h-182l-101 269l-40 131h-10l8 -129v-317z" />
    <glyph glyph-name="N" unicode="N" horiz-adv-x="685" 
d="M197 0h-150v670h160l217 -336l56 -90h10l-2 90v336h150v-670h-160l-208 317l-65 103h-10l2 -103v-317z" />
    <glyph glyph-name="O" unicode="O" horiz-adv-x="707" 
d="M354 -10q-149 0 -235.5 93.5t-86.5 251.5t86.5 251.5t235.5 93.5t235 -93.5t86 -251.5t-86 -251.5t-235 -93.5zM354 135q89 0 125 42.5t36 157.5t-36 157.5t-125 42.5t-125.5 -42.5t-36.5 -157.5t36.5 -157.5t125.5 -42.5z" />
    <glyph glyph-name="P" unicode="P" horiz-adv-x="619" 
d="M197 0h-150v670h308q110 0 178.5 -63t68.5 -173t-68 -172.5t-179 -62.5h-158v-199zM361 535h-164v-202h164q53 0 72.5 21t19.5 80q0 60 -19.5 80.5t-72.5 20.5z" />
    <glyph glyph-name="Q" unicode="Q" horiz-adv-x="707" 
d="M354 -10q-149 0 -235.5 93.5t-86.5 251.5t86.5 251.5t235.5 93.5t235 -93.5t86 -251.5q0 -110 -43 -190.5t-121 -120.5l118 -165h-194l-80 131h-1zM354 135q89 0 125 42.5t36 157.5t-36 157.5t-125 42.5t-125.5 -42.5t-36.5 -157.5t36.5 -157.5t125.5 -42.5z" />
    <glyph glyph-name="R" unicode="R" horiz-adv-x="640" 
d="M197 0h-150v670h308q120 0 184.5 -53t64.5 -151q0 -169 -169 -184v-10q41 -13 66 -37.5t46 -66.5l85 -168h-175l-79 155q-25 48 -48 65.5t-73 17.5h-60v-238zM197 535v-173h165q53 0 73 19t20 68q0 48 -20.5 67t-72.5 19h-165z" />
    <glyph glyph-name="S" unicode="S" horiz-adv-x="619" 
d="M335 -10q-288 0 -288 228v13h147v-10q0 -56 29 -75.5t119 -19.5q62 0 84 13.5t22 48.5q0 36 -18.5 51t-85.5 26l-118 21q-182 31 -182 191q0 85 66.5 144t200.5 59q137 0 204 -63t67 -169v-8h-148v11q0 53 -27 73t-101 20q-63 0 -88 -14.5t-25 -46.5t18 -44.5t78 -23.5
l119 -23q189 -36 189 -199q0 -88 -64 -145.5t-198 -57.5z" />
    <glyph glyph-name="T" unicode="T" horiz-adv-x="586" 
d="M368 0h-150v535h-216v135h582v-135h-216v-535z" />
    <glyph glyph-name="U" unicode="U" horiz-adv-x="675" 
d="M338 -10q-144 0 -219 71.5t-75 199.5v409h149v-407q0 -72 31 -100t114 -28q82 0 113 28t31 100v407h150v-409q0 -128 -75 -199.5t-219 -71.5z" />
    <glyph glyph-name="V" unicode="V" horiz-adv-x="698" 
d="M449 0h-200l-243 670h169l171 -502h10l168 502h168z" />
    <glyph glyph-name="W" unicode="W" horiz-adv-x="986" 
d="M363 0h-220l-135 670h174l51 -302l24 -221h11l41 221l79 302h213l79 -300l42 -223h11l24 223l51 300h170l-135 -670h-219l-81 297l-45 212h-10l-45 -212z" />
    <glyph glyph-name="X" unicode="X" horiz-adv-x="702" 
d="M198 0h-175l207 331v10l-207 329h177l149 -238h10l145 238h175l-206 -328v-10l206 -332h-177l-149 239h-10z" />
    <glyph glyph-name="Y" unicode="Y" horiz-adv-x="668" 
d="M409 0h-150v242l-261 428h170l105 -176l58 -99h10l57 99l105 176h167l-261 -428v-242z" />
    <glyph glyph-name="Z" unicode="Z" horiz-adv-x="602" 
d="M582 0h-562v124l344 401v10h-325v135h529v-124l-347 -401v-10h361v-135z" />
    <glyph glyph-name="bracketleft" unicode="[" horiz-adv-x="313" 
d="M295 -60h-249v790h249v-124h-110v-542h110v-124z" />
    <glyph glyph-name="backslash" unicode="\" horiz-adv-x="480" 
d="M500 -20h-160l-360 710h160z" />
    <glyph glyph-name="bracketright" unicode="]" horiz-adv-x="313" 
d="M2 64h110v542h-110v124h249v-790h-249v124z" />
    <glyph glyph-name="asciicircum" unicode="^" horiz-adv-x="527" 
d="M172 280h-140l143 390h177l143 -390h-140l-86 254h-11z" />
    <glyph glyph-name="underscore" unicode="_" horiz-adv-x="380" 
d="M370 -107h-360v107h360v-107z" />
    <glyph glyph-name="grave" unicode="`" horiz-adv-x="600" 
d="M423 560h-159l-156 125v5h204l111 -125v-5z" />
    <glyph glyph-name="a" unicode="a" horiz-adv-x="544" 
d="M185 -10q-70 0 -114 36t-44 102q0 117 160 142l172 26v16q0 42 -21.5 56t-69.5 14q-46 0 -65.5 -15t-19.5 -53v-11h-143v11q0 90 64.5 144.5t170.5 54.5q110 0 168 -56.5t58 -158.5v-298h-139v68h-6q-57 -78 -171 -78zM170 140q0 -36 65 -36q124 0 124 94l-144 -22
q-45 -7 -45 -36z" />
    <glyph glyph-name="b" unicode="b" horiz-adv-x="593" 
d="M185 0h-139v670h149v-237h6q19 34 59 57t94 23q102 0 156.5 -70t54.5 -192q0 -121 -54.5 -191t-155.5 -70q-123 0 -165 84h-5v-74zM195 211q0 -49 28 -71t83 -22q62 0 86 31t24 102q0 72 -23.5 103t-86.5 31q-55 0 -83 -22t-28 -71v-81z" />
    <glyph glyph-name="c" unicode="c" horiz-adv-x="551" 
d="M283 -10q-123 0 -189 69.5t-66 190.5q0 122 69 192.5t194 70.5q102 0 167 -57t65 -149v-12h-150v8q0 41 -23 58.5t-71 17.5q-55 0 -79 -29t-24 -99q0 -69 24 -98t79 -29q48 0 71 17.5t23 58.5v8h150v-12q0 -92 -67.5 -149t-172.5 -57z" />
    <glyph glyph-name="d" unicode="d" horiz-adv-x="593" 
d="M246 -10q-105 0 -161.5 70t-56.5 191q0 120 58 191t160 71q104 0 146 -76h6v233h149v-670h-139v74h-5q-40 -84 -157 -84zM177 251q0 -71 24 -102t87 -31q55 0 82.5 21.5t27.5 71.5v81q0 50 -27.5 71.5t-82.5 21.5q-63 0 -87 -31t-24 -103z" />
    <glyph glyph-name="e" unicode="e" horiz-adv-x="553" 
d="M280 -10q-126 0 -189 68.5t-63 191.5q0 121 68 192t185 71q112 0 176 -60.5t64 -160.5q0 -34 -7 -74h-345q2 -53 27 -75.5t86 -22.5q86 0 86 44v6h148v-10q0 -80 -63.5 -125t-172.5 -45zM276 390q-52 0 -76.5 -20t-29.5 -61h207q2 39 -23.5 60t-77.5 21z" />
    <glyph glyph-name="f" unicode="f" horiz-adv-x="348" 
d="M227 0h-150v379h-73v124h74q7 81 61 125t153 44q31 0 47 -2v-112h-62q-29 0 -42.5 -10.5t-13.5 -35.5v-9h118v-124h-112v-379z" />
    <glyph glyph-name="g" unicode="g" horiz-adv-x="593" 
d="M241 53q-103 0 -158 61t-55 168t57 169t162 62q115 0 156 -83h5v73h139v-447q0 -236 -249 -236q-118 0 -181.5 50.5t-63.5 146.5h149q0 -40 19 -52.5t82 -12.5q59 0 77 18.5t18 77.5v78h-6q-18 -31 -57.5 -52t-93.5 -21zM177 282q0 -55 24 -79.5t86 -24.5q111 0 111 89
v30q0 47 -27.5 68t-82.5 21q-63 0 -87 -24.5t-24 -79.5z" />
    <glyph glyph-name="h" unicode="h" 
d="M195 0h-149v670h149v-245h6q22 38 63.5 63t98.5 25q93 0 138.5 -54t45.5 -140v-319h-150v289q0 53 -21.5 74t-77.5 21q-55 0 -79 -22t-24 -78v-284z" />
    <glyph glyph-name="i" unicode="i" horiz-adv-x="228" 
d="M187 560h-147l-2 110h149v-110zM190 0h-150v503h150v-503z" />
    <glyph glyph-name="j" unicode="j" horiz-adv-x="244" 
d="M198 560h-150v110h150v-110zM-49 -168v126h40q37 0 47 8t10 36v501h150v-478q0 -108 -52 -151.5t-152 -43.5q-17 0 -43 2z" />
    <glyph glyph-name="k" unicode="k" horiz-adv-x="553" 
d="M195 0h-149v670h149v-353h74l114 186h172l-164 -240l163 -263h-172l-110 183h-77v-183z" />
    <glyph glyph-name="l" unicode="l" horiz-adv-x="241" 
d="M195 0h-149v670h149v-670z" />
    <glyph glyph-name="m" unicode="m" horiz-adv-x="921" 
d="M195 0h-149v503h139v-88h6q46 98 165 98q121 0 163 -98h5q50 98 171 98q92 0 137.5 -54t45.5 -140v-319h-150v289q0 53 -20 74t-74 21q-52 0 -74.5 -20.5t-22.5 -74.5v-289h-150v289q0 53 -20.5 74t-73.5 21q-52 0 -75 -20.5t-23 -72.5v-291z" />
    <glyph glyph-name="n" unicode="n" 
d="M195 0h-149v503h139v-88h6q46 98 169 98q93 0 140 -54t47 -140v-319h-150v289q0 53 -21.5 74t-77.5 21q-55 0 -79 -21.5t-24 -77.5v-285z" />
    <glyph glyph-name="o" unicode="o" horiz-adv-x="569" 
d="M286 -10q-121 0 -189.5 70.5t-68.5 190.5q0 121 68.5 191.5t189.5 70.5q120 0 187.5 -70.5t67.5 -191.5q0 -120 -67.5 -190.5t-187.5 -70.5zM286 122q61 0 85 28t24 101t-24 101.5t-85 28.5q-62 0 -86 -28.5t-24 -101.5t24 -101t86 -28z" />
    <glyph glyph-name="p" unicode="p" horiz-adv-x="593" 
d="M187 -168h-150v671h139v-74h5q42 84 160 84q105 0 160.5 -70t55.5 -192q0 -120 -56 -190.5t-157 -70.5q-111 0 -152 76h-5v-234zM187 211q0 -50 27.5 -71.5t82.5 -21.5q63 0 86.5 31t23.5 102q0 72 -23.5 103t-86.5 31q-55 0 -82.5 -21.5t-27.5 -71.5v-81z" />
    <glyph glyph-name="q" unicode="q" horiz-adv-x="593" 
d="M245 -10q-104 0 -160.5 70t-56.5 191t55.5 191.5t157.5 70.5q58 0 100.5 -22t61.5 -62h5v74h139v-671h-149v234h-6q-41 -76 -147 -76zM177 251q0 -71 24 -102t87 -31q55 0 82.5 21.5t27.5 71.5v81q0 50 -27.5 71.5t-82.5 21.5q-63 0 -87 -31t-24 -103z" />
    <glyph glyph-name="r" unicode="r" horiz-adv-x="493" 
d="M195 0h-149v503h139v-81h6q45 91 141 91q75 0 109.5 -48.5t34.5 -130.5v-46h-149v27q0 40 -14 55.5t-50 15.5t-52 -15.5t-16 -55.5v-315z" />
    <glyph glyph-name="s" unicode="s" horiz-adv-x="505" 
d="M267 -10q-235 0 -235 181v3h143v-21q0 -27 19.5 -36t75.5 -9q44 0 57.5 7t13.5 27t-15 28t-66 17l-76 14q-77 14 -115 49.5t-38 103.5q0 72 57 115.5t162 43.5q96 0 156.5 -44.5t60.5 -126.5v-14h-143v14q0 27 -16 39t-62 12q-43 0 -58.5 -9t-15.5 -28q0 -18 12.5 -26
t56.5 -17l92 -19q79 -15 114.5 -51.5t35.5 -98.5q0 -71 -56.5 -112.5t-159.5 -41.5z" />
    <glyph glyph-name="t" unicode="t" horiz-adv-x="400" 
d="M278 -2q-100 0 -147 39.5t-47 127.5v214h-80v124h84l28 117h118v-117h142v-124h-142v-197q0 -32 15 -40.5t65 -8.5h62v-125q-48 -10 -98 -10z" />
    <glyph glyph-name="u" unicode="u" 
d="M230 -10q-94 0 -140.5 54t-46.5 140v319h149v-289q0 -53 21.5 -74t77.5 -21q55 0 79 21.5t24 77.5v285h149v-503h-139v88h-5q-47 -98 -169 -98z" />
    <glyph glyph-name="v" unicode="v" horiz-adv-x="586" 
d="M388 0h-191l-195 503h167l120 -359h11l120 359h164z" />
    <glyph glyph-name="w" unicode="w" horiz-adv-x="834" 
d="M321 0h-196l-117 503h165l33 -232l19 -151h11l28 151l61 232h191l62 -233l27 -150h10l18 150l35 233h158l-117 -503h-196l-65 239l-25 132h-11l-25 -132z" />
    <glyph glyph-name="x" unicode="x" horiz-adv-x="563" 
d="M168 0h-168l167 250v9l-167 244h173l108 -168h9l105 168h168l-167 -250v-10l167 -243h-174l-107 167h-10z" />
    <glyph glyph-name="y" unicode="y" horiz-adv-x="579" 
d="M151 -170q-46 0 -92 11v124h84q30 0 43 7t24 30l9 19l-211 482h167l82 -210l36 -97h11l31 97l71 210h167l-224 -538q-32 -76 -77 -105.5t-121 -29.5z" />
    <glyph glyph-name="z" unicode="z" horiz-adv-x="547" 
d="M519 0h-491v115l201 188l72 60l-1 11l-71 -2h-186v131h461v-126l-210 -185l-63 -52l1 -10l62 1h225v-131z" />
    <glyph glyph-name="braceleft" unicode="{" horiz-adv-x="344" 
d="M324 -60h-12q-204 0 -204 210v72q0 29 -13 39t-49 10h-28v128h28q36 0 49 10t13 39v72q0 210 204 210h12v-145h-9q-45 0 -56.5 -16t-11.5 -68v-35q0 -126 -114 -126v-10q114 0 114 -126v-35q0 -52 11.5 -68t56.5 -16h9v-145z" />
    <glyph glyph-name="bar" unicode="|" horiz-adv-x="192" 
d="M165 -100h-138v870h138v-870z" />
    <glyph glyph-name="braceright" unicode="}" horiz-adv-x="344" 
d="M20 730h12q204 0 204 -210v-72q0 -29 13 -39t49 -10h28v-128h-28q-36 0 -49 -10t-13 -39v-72q0 -210 -204 -210h-12v145h9q45 0 56.5 16t11.5 68v35q0 126 114 126v10q-114 0 -114 126v35q0 52 -11.5 68t-56.5 16h-9v145z" />
    <glyph glyph-name="asciitilde" unicode="~" horiz-adv-x="541" 
d="M151 242h-125v53q0 135 120 135q35 0 84 -17l71 -27q44 -17 66 -17q23 0 23 24v28h125v-56q0 -129 -107 -129q-49 0 -117 26l-65 23q-33 11 -47 11q-28 0 -28 -28v-26z" />
    <glyph glyph-name="nbspace" unicode="&#xa0;" horiz-adv-x="190" 
 />
    <glyph glyph-name="exclamdown" unicode="&#xa1;" horiz-adv-x="294" 
d="M61 500h171v-163h-171v163zM72 280h150q0 -42 10.5 -192t10.5 -188v-70h-193v70q0 38 11 188.5t11 191.5z" />
    <glyph glyph-name="cent" unicode="&#xa2;" horiz-adv-x="551" 
d="M350 -100h-139v97q-89 19 -136 85t-47 168q0 100 47.5 166.5t135.5 87.5v99h139v-96q78 -15 125.5 -68.5t47.5 -131.5v-12h-150v8q0 41 -23 58.5t-71 17.5q-55 0 -79 -29t-24 -99q0 -69 24 -98t79 -29q48 0 71 17.5t23 58.5v8h150v-12q0 -76 -47 -129t-126 -70v-97z" />
    <glyph glyph-name="sterling" unicode="&#xa3;" horiz-adv-x="619" 
d="M416 243h-122q1 -7 1 -21q0 -56 -52 -82v-5h347v-135h-550v135h42q39 0 59.5 17t20.5 46q0 21 -7 45h-118v123h56q-25 57 -25 112q0 89 68.5 145.5t195.5 56.5q130 0 190 -61.5t60 -163.5v-18h-147v17q0 51 -22.5 70t-86.5 19q-57 0 -82.5 -18t-25.5 -57q0 -38 27 -99
l1 -3h170v-123z" />
    <glyph glyph-name="currency" unicode="&#xa4;" horiz-adv-x="604" 
d="M303 70q-89 0 -151 42l-87 -79l-55 60l84 76q-41 58 -41 138t41 139l-84 76l55 60l87 -79q62 42 151 42q88 0 150 -42l86 79l55 -60l-84 -76q40 -60 40 -139q0 -80 -40 -138l84 -76l-55 -60l-86 79q-65 -42 -150 -42zM303 202q54 0 77.5 25t23.5 80q0 56 -23.5 81
t-77.5 25q-55 0 -78.5 -25t-23.5 -81q0 -55 23.5 -80t78.5 -25z" />
    <glyph glyph-name="yen" unicode="&#xa5;" horiz-adv-x="743" 
d="M454 0h-149v140h-257v123h245l-43 70h-202v124h126l-130 213h169l127 -212l36 -84h11l36 84l126 212h167l-131 -213h127v-124h-203l-43 -70h246v-123h-258v-140z" />
    <glyph glyph-name="brokenbar" unicode="&#xa6;" horiz-adv-x="239" 
d="M189 375h-139v395h139v-395zM189 -100h-139v395h139v-395z" />
    <glyph glyph-name="section" unicode="&#xa7;" horiz-adv-x="508" 
d="M265 -10q-231 0 -231 171v15h144v-19q0 -26 16.5 -37t64.5 -11q46 0 62.5 8t16.5 26q0 16 -12 23t-54 18l-136 39q-54 15 -80.5 40t-26.5 68q0 60 60 88v5q-59 30 -59 105q0 69 57.5 110t161.5 41q101 0 158 -44t57 -127v-12h-144v18q0 24 -15.5 35t-60.5 11
q-43 0 -58.5 -8t-15.5 -26t12 -25t57 -20l134 -39q53 -16 79.5 -40.5t26.5 -64.5q0 -64 -60 -93v-5q59 -30 59 -97q0 -72 -54 -112.5t-159 -40.5zM188 333l125 -36q34 -9 34 19q0 17 -27 24l-125 36q-16 5 -24.5 -1t-8.5 -17q0 -16 26 -25z" />
    <glyph glyph-name="dieresis" unicode="&#xa8;" horiz-adv-x="600" 
d="M466 560h-148v132h148v-132zM258 560h-147v132h147v-132z" />
    <glyph glyph-name="copyright" unicode="&#xa9;" horiz-adv-x="713" 
d="M356 -6q-149 0 -244 93.5t-95 247.5t95 247.5t244 93.5t244.5 -93.5t95.5 -247.5t-95 -247.5t-245 -93.5zM356 99q115 0 169 53t54 183t-54 183t-169 53q-114 0 -168.5 -53t-54.5 -183t54.5 -183t168.5 -53zM361 154q-80 0 -126 49t-46 132q0 84 46 132.5t126 48.5
q73 0 118.5 -42t45.5 -111v-8h-108v6q0 30 -13.5 43t-42.5 13q-36 0 -50 -17.5t-14 -64.5t14 -64.5t50 -17.5q29 0 42.5 13t13.5 43v6h108v-8q0 -69 -45.5 -111t-118.5 -42z" />
    <glyph glyph-name="ordfeminine" unicode="&#xaa;" horiz-adv-x="233" 
d="M94 524q-53 0 -53 40q0 36 55 42l54 6v3q0 22 -25 22t-25 -23v-2h-55v3q0 29 23 47t60 18q38 0 57 -17t19 -47v-89h-51v23h-2q-14 -26 -57 -26zM93 568q0 -9 20 -9q36 0 36 23l-41 -4q-15 -2 -15 -10z" />
    <glyph glyph-name="guillemotleft" unicode="&#xab;" horiz-adv-x="500" 
d="M270 388l200 134v-153l-99 -59v-10l99 -59v-153l-200 134v166zM30 388l200 134v-153l-99 -59v-10l99 -59v-153l-200 134v166z" />
    <glyph glyph-name="logicalnot" unicode="&#xac;" horiz-adv-x="505" 
d="M486 151h-128v184h-329v124h457v-308z" />
    <glyph glyph-name="softhyphen" unicode="&#xad;" horiz-adv-x="412" 
d="M392 231h-372v128h372v-128z" />
    <glyph glyph-name="registered" unicode="&#xae;" horiz-adv-x="400" 
d="M200 332q-81 0 -131.5 48t-50.5 127t50.5 127t131.5 48q80 0 130.5 -48t50.5 -127t-50.5 -127t-130.5 -48zM200 389q66 0 93 27.5t27 90.5t-27 90.5t-93 27.5q-65 0 -92 -27t-27 -91t27 -91t92 -27zM179 437h-49v144h83q60 0 60 -44q0 -20 -11.5 -31.5t-29.5 -11.5v-2
q15 -5 27 -24l19 -31h-55l-18 29q-9 15 -24 15h-2v-44zM179 540v-23h33q13 0 13 11q0 12 -13 12h-33z" />
    <glyph glyph-name="macron" unicode="&#xaf;" horiz-adv-x="600" 
d="M436 572h-307v105h307v-105z" />
    <glyph glyph-name="degree" unicode="&#xb0;" horiz-adv-x="232" 
d="M116 524q-39 0 -62 21.5t-23 56.5t23 56.5t62 21.5t62 -21.5t23 -56.5t-23 -56.5t-62 -21.5zM116 573q16 0 23 6.5t7 22.5t-7 22.5t-23 6.5t-23 -6.5t-7 -22.5t7 -22.5t23 -6.5z" />
    <glyph glyph-name="plusminus" unicode="&#xb1;" horiz-adv-x="516" 
d="M476 19h-447v123h171v131h-160v124h160v161h127v-161h160v-124h-160v-131h149v-123z" />
    <glyph glyph-name="twosuperior" unicode="&#xb2;" horiz-adv-x="347" 
d="M320 340h-303v48q0 46 25.5 74.5t76.5 47.5l50 18q45 17 51 27q3 4 3 10q0 27 -46 27q-56 0 -56 -34v-8h-103v8q0 53 42 87.5t123 34.5q73 0 109 -29t36 -78q0 -42 -26.5 -65.5t-77.5 -40.5l-77 -25q-21 -8 -27 -19l64 2h136v-85z" />
    <glyph glyph-name="threesuperior" unicode="&#xb3;" horiz-adv-x="357" 
d="M183 335q-158 0 -158 114v11h103v-10q0 -18 10 -25t41 -7q28 0 37.5 6.5t9.5 24.5t-9 23t-32 5h-48v72h41q20 0 27.5 4t7.5 17q0 15 -8 21t-31 6q-27 0 -36.5 -6t-9.5 -23v-5h-103v4q0 53 40.5 83t115.5 30q138 0 138 -90q0 -60 -77 -70v-5q43 -5 67 -26.5t24 -58.5
q0 -95 -150 -95z" />
    <glyph glyph-name="acute" unicode="&#xb4;" horiz-adv-x="600" 
d="M307 560h-159v5l111 125h204v-5z" />
    <glyph glyph-name="paragraph" unicode="&#xb6;" horiz-adv-x="690" 
d="M420 0h-149v270h-6q-112 0 -179 50.5t-67 149.5t67 149.5t179 50.5h155v-670zM642 0h-150v670h150v-670z" />
    <glyph glyph-name="periodcentered" unicode="&#xb7;" horiz-adv-x="252" 
d="M228 250h-188v177h188v-177z" />
    <glyph glyph-name="cedilla" unicode="&#xb8;" horiz-adv-x="600" 
d="M278 -229h-102v79h100q28 0 28 18q0 11 -6 14.5t-22 3.5h-76v117h79v-46h5q51 0 79.5 -24.5t28.5 -66.5q0 -44 -30 -69.5t-84 -25.5z" />
    <glyph glyph-name="onesuperior" unicode="&#xb9;" horiz-adv-x="225" 
d="M211 335h-106v211h-85v83h11q59 0 80 41h100v-335z" />
    <glyph glyph-name="ordmasculine" unicode="&#xba;" horiz-adv-x="232" 
d="M116 524q-39 0 -62 21.5t-23 56.5t23 56.5t62 21.5t62 -21.5t23 -56.5t-23 -56.5t-62 -21.5zM116 573q16 0 23 6.5t7 22.5t-7 22.5t-23 6.5t-23 -6.5t-7 -22.5t7 -22.5t23 -6.5z" />
    <glyph glyph-name="guillemotright" unicode="&#xbb;" horiz-adv-x="500" 
d="M230 222l-200 -134v153l99 59v10l-99 59v153l200 -134v-166zM470 222l-200 -134v153l99 59v10l-99 59v153l200 -134v-166z" />
    <glyph glyph-name="onequarter" unicode="&#xbc;" horiz-adv-x="771" 
d="M235 335h-106v211h-85v83h11q59 0 80 41h100v-335zM202 0h-137l483 670h136zM697 0h-106v65h-189v83l177 187h118v-176h48v-94h-48v-65zM513 159h78v79h-6l-72 -74v-5z" />
    <glyph glyph-name="onehalf" unicode="&#xbd;" horiz-adv-x="798" 
d="M235 335h-106v211h-85v83h11q59 0 80 41h100v-335zM202 0h-137l483 670h136zM762 0h-303v48q0 46 25.5 74.5t76.5 47.5l50 18q45 17 51 27q3 4 3 10q0 27 -46 27q-56 0 -56 -34v-8h-103v8q0 53 42 87.5t123 34.5q73 0 109 -29t36 -78q0 -42 -26.5 -65.5t-77.5 -40.5
l-77 -25q-21 -8 -27 -19l64 2h136v-85z" />
    <glyph glyph-name="threequarters" unicode="&#xbe;" horiz-adv-x="833" 
d="M190 335q-158 0 -158 114v11h103v-10q0 -18 10 -25t41 -7q28 0 37.5 6.5t9.5 24.5t-9 23t-32 5h-48v72h41q20 0 27.5 4t7.5 17q0 15 -8 21t-31 6q-27 0 -36.5 -6t-9.5 -23v-5h-103v4q0 53 40.5 83t115.5 30q138 0 138 -90q0 -60 -77 -70v-5q43 -5 67 -26.5t24 -58.5
q0 -95 -150 -95zM264 0h-137l483 670h136zM759 0h-106v65h-189v83l177 187h118v-176h48v-94h-48v-65zM575 159h78v79h-6l-72 -74v-5z" />
    <glyph glyph-name="questiondown" unicode="&#xbf;" horiz-adv-x="577" 
d="M238 500h171v-163h-171v163zM250 276h150v-22q0 -49 -19.5 -76t-66.5 -49l-59 -29q-43 -20 -59 -34t-16 -43q0 -35 21.5 -51t79.5 -16q67 0 93 19t26 65v16h147v-15q0 -97 -68.5 -159t-204.5 -62q-124 0 -183.5 54t-59.5 143q0 117 129 174l56 24q20 9 27 19t7 27v15z
" />
    <glyph glyph-name="Agrave" unicode="&#xc0;" horiz-adv-x="716" 
d="M433 730h-159l-156 126v5h204l111 -126v-5zM158 0h-156l247 670h218l247 -670h-163l-54 149h-284zM300 387l-38 -104h186l-38 104l-49 151h-10z" />
    <glyph glyph-name="Aacute" unicode="&#xc1;" horiz-adv-x="716" 
d="M448 730h-159v5l111 126h204v-5zM158 0h-156l247 670h218l247 -670h-163l-54 149h-284zM300 387l-38 -104h186l-38 104l-49 151h-10z" />
    <glyph glyph-name="Acircumflex" unicode="&#xc2;" horiz-adv-x="716" 
d="M310 730h-144v5l104 125h178l103 -125v-5h-144l-43 56h-11zM158 0h-156l247 670h218l247 -670h-163l-54 149h-284zM300 387l-38 -104h186l-38 104l-49 151h-10z" />
    <glyph glyph-name="Atilde" unicode="&#xc3;" horiz-adv-x="716" 
d="M281 727h-100v39q0 107 86 107q25 0 66 -18l48 -20q27 -12 37 -12q16 0 16 22v18h100v-46q0 -43 -19 -71t-63 -28q-26 0 -78 21l-51 21q-22 9 -28 9q-14 0 -14 -20v-22zM158 0h-156l247 670h218l247 -670h-163l-54 149h-284zM300 387l-38 -104h186l-38 104l-49 151h-10z
" />
    <glyph glyph-name="Adieresis" unicode="&#xc4;" horiz-adv-x="716" 
d="M535 730h-147v132h147v-132zM328 730h-147v132h147v-132zM158 0h-156l247 670h218l247 -670h-163l-54 149h-284zM300 387l-38 -104h186l-38 104l-49 151h-10z" />
    <glyph glyph-name="Aring" unicode="&#xc5;" horiz-adv-x="716" 
d="M158 0h-156l246 666q-10 20 -10 45q0 47 33 75.5t87 28.5t87.5 -28.5t33.5 -75.5q0 -23 -10 -46l245 -665h-163l-54 149h-284zM358 679q27 0 36 6.5t9 25.5t-9 25t-36 6q-26 0 -35 -6t-9 -25t9 -25.5t35 -6.5zM300 387l-38 -104h186l-38 104l-49 151h-10z" />
    <glyph glyph-name="AE" unicode="&#xc6;" horiz-adv-x="1094" 
d="M184 0h-186l454 670h604v-135h-361v-131h346v-134h-346v-135h361v-135h-511v148h-265zM536 541l-168 -258h177v258h-9z" />
    <glyph glyph-name="Ccedilla" unicode="&#xc7;" horiz-adv-x="690" 
d="M378 -229h-102v79h100q28 0 28 18q0 11 -6 14.5t-22 3.5h-76v107q-126 16 -197 107.5t-71 234.5q0 158 85.5 251.5t235.5 93.5q147 0 226 -72t79 -198v-9h-160v5q0 72 -33 100.5t-113 28.5q-88 0 -124 -42t-36 -158t36 -158t124 -42q80 0 113 28.5t33 100.5v5h160v-9
q0 -121 -72.5 -192t-206.5 -77v-34h5q51 0 79.5 -24.5t28.5 -66.5q0 -44 -30 -69.5t-84 -25.5z" />
    <glyph glyph-name="Egrave" unicode="&#xc8;" horiz-adv-x="596" 
d="M378 730h-159l-156 126v5h204l111 -126v-5zM558 0h-511v670h511v-135h-361v-131h346v-134h-346v-135h361v-135z" />
    <glyph glyph-name="Eacute" unicode="&#xc9;" horiz-adv-x="596" 
d="M393 730h-159v5l111 126h204v-5zM558 0h-511v670h511v-135h-361v-131h346v-134h-346v-135h361v-135z" />
    <glyph glyph-name="Ecircumflex" unicode="&#xca;" horiz-adv-x="596" 
d="M255 730h-144v5l104 125h178l103 -125v-5h-144l-43 56h-11zM558 0h-511v670h511v-135h-361v-131h346v-134h-346v-135h361v-135z" />
    <glyph glyph-name="Edieresis" unicode="&#xcb;" horiz-adv-x="596" 
d="M480 730h-147v132h147v-132zM273 730h-147v132h147v-132zM558 0h-511v670h511v-135h-361v-131h346v-134h-346v-135h361v-135z" />
    <glyph glyph-name="Igrave" unicode="&#xcc;" horiz-adv-x="244" 
d="M197 730h-159l-156 126v5h204l111 -126v-5zM197 0h-150v670h150v-670z" />
    <glyph glyph-name="Iacute" unicode="&#xcd;" horiz-adv-x="244" 
d="M212 730h-159v5l111 126h204v-5zM197 0h-150v670h150v-670z" />
    <glyph glyph-name="Icircumflex" unicode="&#xce;" horiz-adv-x="244" 
d="M73 730h-144v5l104 125h178l103 -125v-5h-144l-43 56h-11zM197 0h-150v670h150v-670z" />
    <glyph glyph-name="Idieresis" unicode="&#xcf;" horiz-adv-x="244" 
d="M299 730h-147v132h147v-132zM92 730h-147v132h147v-132zM197 0h-150v670h150v-670z" />
    <glyph glyph-name="Eth" unicode="&#xd0;" horiz-adv-x="737" 
d="M362 0h-256v268h-98v134h98v268h256q162 0 254.5 -89t92.5 -246t-92.5 -246t-254.5 -89zM413 268h-157v-133h104q105 0 146.5 42t41.5 158t-41.5 158t-146.5 42h-104v-133h157v-134z" />
    <glyph glyph-name="Ntilde" unicode="&#xd1;" horiz-adv-x="685" 
d="M266 727h-100v39q0 107 86 107q25 0 66 -18l48 -20q27 -12 37 -12q16 0 16 22v18h100v-46q0 -43 -19 -71t-63 -28q-26 0 -78 21l-51 21q-22 9 -28 9q-14 0 -14 -20v-22zM197 0h-150v670h160l217 -336l56 -90h10l-2 90v336h150v-670h-160l-208 317l-65 103h-10l2 -103
v-317z" />
    <glyph glyph-name="Ograve" unicode="&#xd2;" horiz-adv-x="707" 
d="M429 730h-159l-156 126v5h204l111 -126v-5zM354 -10q-149 0 -235.5 93.5t-86.5 251.5t86.5 251.5t235.5 93.5t235 -93.5t86 -251.5t-86 -251.5t-235 -93.5zM354 135q89 0 125 42.5t36 157.5t-36 157.5t-125 42.5t-125.5 -42.5t-36.5 -157.5t36.5 -157.5t125.5 -42.5z" />
    <glyph glyph-name="Oacute" unicode="&#xd3;" horiz-adv-x="707" 
d="M444 730h-159v5l111 126h204v-5zM354 -10q-149 0 -235.5 93.5t-86.5 251.5t86.5 251.5t235.5 93.5t235 -93.5t86 -251.5t-86 -251.5t-235 -93.5zM354 135q89 0 125 42.5t36 157.5t-36 157.5t-125 42.5t-125.5 -42.5t-36.5 -157.5t36.5 -157.5t125.5 -42.5z" />
    <glyph glyph-name="Ocircumflex" unicode="&#xd4;" horiz-adv-x="707" 
d="M305 730h-144v5l104 125h178l103 -125v-5h-144l-43 56h-11zM354 -10q-149 0 -235.5 93.5t-86.5 251.5t86.5 251.5t235.5 93.5t235 -93.5t86 -251.5t-86 -251.5t-235 -93.5zM354 135q89 0 125 42.5t36 157.5t-36 157.5t-125 42.5t-125.5 -42.5t-36.5 -157.5t36.5 -157.5
t125.5 -42.5z" />
    <glyph glyph-name="Otilde" unicode="&#xd5;" horiz-adv-x="707" 
d="M277 727h-100v39q0 107 86 107q25 0 66 -18l48 -20q27 -12 37 -12q16 0 16 22v18h100v-46q0 -43 -19 -71t-63 -28q-26 0 -78 21l-51 21q-22 9 -28 9q-14 0 -14 -20v-22zM354 -10q-149 0 -235.5 93.5t-86.5 251.5t86.5 251.5t235.5 93.5t235 -93.5t86 -251.5t-86 -251.5
t-235 -93.5zM354 135q89 0 125 42.5t36 157.5t-36 157.5t-125 42.5t-125.5 -42.5t-36.5 -157.5t36.5 -157.5t125.5 -42.5z" />
    <glyph glyph-name="Odieresis" unicode="&#xd6;" horiz-adv-x="707" 
d="M531 730h-147v132h147v-132zM324 730h-147v132h147v-132zM354 -10q-149 0 -235.5 93.5t-86.5 251.5t86.5 251.5t235.5 93.5t235 -93.5t86 -251.5t-86 -251.5t-235 -93.5zM354 135q89 0 125 42.5t36 157.5t-36 157.5t-125 42.5t-125.5 -42.5t-36.5 -157.5t36.5 -157.5
t125.5 -42.5z" />
    <glyph glyph-name="multiply" unicode="&#xd7;" horiz-adv-x="473" 
d="M447 215l-91 -90l-121 121l-120 -120l-87 87l120 120l-121 122l90 90l122 -121l120 120l87 -87l-120 -120z" />
    <glyph glyph-name="Oslash" unicode="&#xd8;" horiz-adv-x="707" 
d="M354 -10q-123 0 -205 65l-86 -86l-77 74l93 94q-47 85 -47 198q0 158 86.5 251.5t235.5 93.5q120 0 203 -64l86 87l77 -74l-93 -94q48 -84 48 -200q0 -158 -86 -251.5t-235 -93.5zM192 335q0 -46 6 -79l257 258q-35 21 -101 21q-89 0 -125.5 -42.5t-36.5 -157.5zM354 135
q89 0 125 42.5t36 157.5q0 47 -6 82l-258 -259q34 -23 103 -23z" />
    <glyph glyph-name="Ugrave" unicode="&#xd9;" horiz-adv-x="675" 
d="M413 730h-159l-156 126v5h204l111 -126v-5zM338 -10q-144 0 -219 71.5t-75 199.5v409h149v-407q0 -72 31 -100t114 -28q82 0 113 28t31 100v407h150v-409q0 -128 -75 -199.5t-219 -71.5z" />
    <glyph glyph-name="Uacute" unicode="&#xda;" horiz-adv-x="675" 
d="M427 730h-159v5l111 126h204v-5zM338 -10q-144 0 -219 71.5t-75 199.5v409h149v-407q0 -72 31 -100t114 -28q82 0 113 28t31 100v407h150v-409q0 -128 -75 -199.5t-219 -71.5z" />
    <glyph glyph-name="Ucircumflex" unicode="&#xdb;" horiz-adv-x="675" 
d="M289 730h-144v5l104 125h178l103 -125v-5h-144l-43 56h-11zM338 -10q-144 0 -219 71.5t-75 199.5v409h149v-407q0 -72 31 -100t114 -28q82 0 113 28t31 100v407h150v-409q0 -128 -75 -199.5t-219 -71.5z" />
    <glyph glyph-name="Udieresis" unicode="&#xdc;" horiz-adv-x="675" 
d="M515 730h-147v132h147v-132zM308 730h-147v132h147v-132zM338 -10q-144 0 -219 71.5t-75 199.5v409h149v-407q0 -72 31 -100t114 -28q82 0 113 28t31 100v407h150v-409q0 -128 -75 -199.5t-219 -71.5z" />
    <glyph glyph-name="Yacute" unicode="&#xdd;" horiz-adv-x="668" 
d="M424 730h-159v5l111 126h204v-5zM409 0h-150v242l-261 428h170l105 -176l58 -99h10l57 99l105 176h167l-261 -428v-242z" />
    <glyph glyph-name="Thorn" unicode="&#xde;" horiz-adv-x="619" 
d="M197 0h-150v670h150v-103h158q110 0 178.5 -62t68.5 -170q0 -109 -68.5 -170.5t-178.5 -61.5h-158v-103zM361 432h-164v-194h164q53 0 72.5 20t19.5 77t-19.5 77t-72.5 20z" />
    <glyph glyph-name="germandbls" unicode="&#xdf;" 
d="M185 0h-147v436q0 245 269 245q114 0 175.5 -46t61.5 -131q0 -128 -133 -144v-10q161 -15 161 -166q0 -91 -65 -137.5t-172 -46.5h-85v135h64q64 0 85 13.5t21 59.5q0 45 -19 60t-68 15h-83v123h62q46 0 64.5 13.5t18.5 51.5q0 42 -20.5 57.5t-76.5 15.5q-68 0 -90.5 -20
t-22.5 -79v-445z" />
    <glyph glyph-name="agrave" unicode="&#xe0;" horiz-adv-x="544" 
d="M364 560h-159l-156 125v5h204l111 -125v-5zM185 -10q-70 0 -114 36t-44 102q0 117 160 142l172 26v16q0 42 -21.5 56t-69.5 14q-46 0 -65.5 -15t-19.5 -53v-11h-143v11q0 90 64.5 144.5t170.5 54.5q110 0 168 -56.5t58 -158.5v-298h-139v68h-6q-57 -78 -171 -78zM170 140
q0 -36 65 -36q124 0 124 94l-144 -22q-45 -7 -45 -36z" />
    <glyph glyph-name="aacute" unicode="&#xe1;" horiz-adv-x="544" 
d="M360 560h-159v5l111 125h204v-5zM185 -10q-70 0 -114 36t-44 102q0 117 160 142l172 26v16q0 42 -21.5 56t-69.5 14q-46 0 -65.5 -15t-19.5 -53v-11h-143v11q0 90 64.5 144.5t170.5 54.5q110 0 168 -56.5t58 -158.5v-298h-139v68h-6q-57 -78 -171 -78zM170 140
q0 -36 65 -36q124 0 124 94l-144 -22q-45 -7 -45 -36z" />
    <glyph glyph-name="acircumflex" unicode="&#xe2;" horiz-adv-x="544" 
d="M222 560h-144v5l104 125h178l103 -125v-5h-144l-43 56h-11zM185 -10q-70 0 -114 36t-44 102q0 117 160 142l172 26v16q0 42 -21.5 56t-69.5 14q-46 0 -65.5 -15t-19.5 -53v-11h-143v11q0 90 64.5 144.5t170.5 54.5q110 0 168 -56.5t58 -158.5v-298h-139v68h-6
q-57 -78 -171 -78zM170 140q0 -36 65 -36q124 0 124 94l-144 -22q-45 -7 -45 -36z" />
    <glyph glyph-name="atilde" unicode="&#xe3;" horiz-adv-x="544" 
d="M194 558h-100v39q0 106 86 106q23 0 66 -17l48 -21q25 -11 37 -11q16 0 16 21v19h100v-47q0 -42 -19 -70t-63 -28q-28 0 -78 20l-51 22q-24 8 -28 8q-14 0 -14 -19v-22zM185 -10q-70 0 -114 36t-44 102q0 117 160 142l172 26v16q0 42 -21.5 56t-69.5 14q-46 0 -65.5 -15
t-19.5 -53v-11h-143v11q0 90 64.5 144.5t170.5 54.5q110 0 168 -56.5t58 -158.5v-298h-139v68h-6q-57 -78 -171 -78zM170 140q0 -36 65 -36q124 0 124 94l-144 -22q-45 -7 -45 -36z" />
    <glyph glyph-name="adieresis" unicode="&#xe4;" horiz-adv-x="544" 
d="M448 560h-148v132h148v-132zM240 560h-147v132h147v-132zM185 -10q-70 0 -114 36t-44 102q0 117 160 142l172 26v16q0 42 -21.5 56t-69.5 14q-46 0 -65.5 -15t-19.5 -53v-11h-143v11q0 90 64.5 144.5t170.5 54.5q110 0 168 -56.5t58 -158.5v-298h-139v68h-6
q-57 -78 -171 -78zM170 140q0 -36 65 -36q124 0 124 94l-144 -22q-45 -7 -45 -36z" />
    <glyph glyph-name="aring" unicode="&#xe5;" horiz-adv-x="544" 
d="M271 544q-46 0 -74 24t-28 64t28 64t74 24t74 -24t28 -64t-28 -64t-74 -24zM271 605q22 0 30 5.5t8 21.5t-8 21.5t-30 5.5t-30 -5.5t-8 -21.5t8 -21.5t30 -5.5zM185 -10q-70 0 -114 36t-44 102q0 117 160 142l172 26v16q0 42 -21.5 56t-69.5 14q-46 0 -65.5 -15
t-19.5 -53v-11h-143v11q0 90 64.5 144.5t170.5 54.5q110 0 168 -56.5t58 -158.5v-298h-139v68h-6q-57 -78 -171 -78zM170 140q0 -36 65 -36q124 0 124 94l-144 -22q-45 -7 -45 -36z" />
    <glyph glyph-name="ae" unicode="&#xe6;" horiz-adv-x="886" 
d="M202 -10q-82 0 -128.5 35t-46.5 104q0 118 158 141l174 26v16q0 41 -21 55.5t-69 14.5q-46 0 -65.5 -15.5t-19.5 -53.5v-11h-144v12q0 90 64.5 144.5t170.5 54.5q109 0 169 -58q67 58 175 58q109 0 172 -61t63 -161q0 -41 -6 -75h-347q3 -54 29 -75t85 -21q87 0 87 44v6
h148v-10q0 -80 -64 -125t-172 -45q-143 0 -207 89q-64 -89 -205 -89zM609 388q-52 0 -76.5 -19.5t-29.5 -59.5h208q1 38 -25 58.5t-77 20.5zM170 140q0 -36 67 -36q127 0 127 95l-149 -23q-45 -7 -45 -36z" />
    <glyph glyph-name="ccedilla" unicode="&#xe7;" horiz-adv-x="551" 
d="M308 -229h-102v79h100q28 0 28 18q0 11 -6 14.5t-22 3.5h-76v108q-98 14 -150 81.5t-52 174.5q0 122 69 192.5t194 70.5q102 0 167 -57t65 -149v-12h-150v8q0 41 -23 58.5t-71 17.5q-55 0 -79 -29t-24 -99q0 -69 24 -98t79 -29q48 0 71 17.5t23 58.5v8h150v-12
q0 -86 -59.5 -141.5t-154.5 -63.5v-34h5q51 0 79.5 -24.5t28.5 -66.5q0 -44 -30 -69.5t-84 -25.5z" />
    <glyph glyph-name="egrave" unicode="&#xe8;" horiz-adv-x="553" 
d="M370 560h-159l-156 125v5h204l111 -125v-5zM280 -10q-126 0 -189 68.5t-63 191.5q0 121 68 192t185 71q112 0 176 -60.5t64 -160.5q0 -34 -7 -74h-345q2 -53 27 -75.5t86 -22.5q86 0 86 44v6h148v-10q0 -80 -63.5 -125t-172.5 -45zM276 390q-52 0 -76.5 -20t-29.5 -61
h207q2 39 -23.5 60t-77.5 21z" />
    <glyph glyph-name="eacute" unicode="&#xe9;" horiz-adv-x="553" 
d="M366 560h-159v5l111 125h204v-5zM280 -10q-126 0 -189 68.5t-63 191.5q0 121 68 192t185 71q112 0 176 -60.5t64 -160.5q0 -34 -7 -74h-345q2 -53 27 -75.5t86 -22.5q86 0 86 44v6h148v-10q0 -80 -63.5 -125t-172.5 -45zM276 390q-52 0 -76.5 -20t-29.5 -61h207
q2 39 -23.5 60t-77.5 21z" />
    <glyph glyph-name="ecircumflex" unicode="&#xea;" horiz-adv-x="553" 
d="M228 560h-144v5l104 125h178l103 -125v-5h-144l-43 56h-11zM280 -10q-126 0 -189 68.5t-63 191.5q0 121 68 192t185 71q112 0 176 -60.5t64 -160.5q0 -34 -7 -74h-345q2 -53 27 -75.5t86 -22.5q86 0 86 44v6h148v-10q0 -80 -63.5 -125t-172.5 -45zM276 390
q-52 0 -76.5 -20t-29.5 -61h207q2 39 -23.5 60t-77.5 21z" />
    <glyph glyph-name="edieresis" unicode="&#xeb;" horiz-adv-x="553" 
d="M454 560h-148v132h148v-132zM246 560h-147v132h147v-132zM280 -10q-126 0 -189 68.5t-63 191.5q0 121 68 192t185 71q112 0 176 -60.5t64 -160.5q0 -34 -7 -74h-345q2 -53 27 -75.5t86 -22.5q86 0 86 44v6h148v-10q0 -80 -63.5 -125t-172.5 -45zM276 390q-52 0 -76.5 -20
t-29.5 -61h207q2 39 -23.5 60t-77.5 21z" />
    <glyph glyph-name="igrave" unicode="&#xec;" horiz-adv-x="226" 
d="M206 560h-159l-156 125v5h204l111 -125v-5zM188 0h-150v503h150v-503z" />
    <glyph glyph-name="iacute" unicode="&#xed;" horiz-adv-x="226" 
d="M202 560h-159v5l111 125h204v-5zM188 0h-150v503h150v-503z" />
    <glyph glyph-name="icircumflex" unicode="&#xee;" horiz-adv-x="226" 
d="M64 560h-144v5l104 125h178l103 -125v-5h-144l-43 56h-11zM188 0h-150v503h150v-503z" />
    <glyph glyph-name="idieresis" unicode="&#xef;" horiz-adv-x="226" 
d="M291 560h-148v132h148v-132zM83 560h-147v132h147v-132zM188 0h-150v503h150v-503z" />
    <glyph glyph-name="eth" unicode="&#xf0;" horiz-adv-x="681" 
d="M356 -10q-135 0 -204 62t-69 173q0 103 63 157.5t172 54.5q110 0 167 -63l6 3q-30 63 -104 140l-174 -47l-20 69l134 36q-54 49 -121 95h202q40 -27 69 -55l149 39l20 -68l-113 -30q118 -142 118 -291q0 -132 -72.5 -203.5t-222.5 -71.5zM366 135q70 0 97 19t27 64
q0 47 -26.5 66t-97.5 19t-97.5 -19t-26.5 -65q0 -45 27 -64.5t97 -19.5z" />
    <glyph glyph-name="ntilde" unicode="&#xf1;" 
d="M220 558h-100v39q0 106 86 106q23 0 66 -17l48 -21q25 -11 37 -11q16 0 16 21v19h100v-47q0 -42 -19 -70t-63 -28q-28 0 -78 20l-51 22q-24 8 -28 8q-14 0 -14 -19v-22zM195 0h-149v503h139v-88h6q46 98 169 98q93 0 140 -54t47 -140v-319h-150v289q0 53 -21.5 74
t-77.5 21q-55 0 -79 -21.5t-24 -77.5v-285z" />
    <glyph glyph-name="ograve" unicode="&#xf2;" horiz-adv-x="569" 
d="M378 560h-159l-156 125v5h204l111 -125v-5zM286 -10q-121 0 -189.5 70.5t-68.5 190.5q0 121 68.5 191.5t189.5 70.5q120 0 187.5 -70.5t67.5 -191.5q0 -120 -67.5 -190.5t-187.5 -70.5zM286 122q61 0 85 28t24 101t-24 101.5t-85 28.5q-62 0 -86 -28.5t-24 -101.5
t24 -101t86 -28z" />
    <glyph glyph-name="oacute" unicode="&#xf3;" horiz-adv-x="569" 
d="M374 560h-159v5l111 125h204v-5zM286 -10q-121 0 -189.5 70.5t-68.5 190.5q0 121 68.5 191.5t189.5 70.5q120 0 187.5 -70.5t67.5 -191.5q0 -120 -67.5 -190.5t-187.5 -70.5zM286 122q61 0 85 28t24 101t-24 101.5t-85 28.5q-62 0 -86 -28.5t-24 -101.5t24 -101t86 -28z
" />
    <glyph glyph-name="ocircumflex" unicode="&#xf4;" horiz-adv-x="569" 
d="M236 560h-144v5l104 125h178l103 -125v-5h-144l-43 56h-11zM286 -10q-121 0 -189.5 70.5t-68.5 190.5q0 121 68.5 191.5t189.5 70.5q120 0 187.5 -70.5t67.5 -191.5q0 -120 -67.5 -190.5t-187.5 -70.5zM286 122q61 0 85 28t24 101t-24 101.5t-85 28.5q-62 0 -86 -28.5
t-24 -101.5t24 -101t86 -28z" />
    <glyph glyph-name="otilde" unicode="&#xf5;" horiz-adv-x="569" 
d="M208 558h-100v39q0 106 86 106q23 0 66 -17l48 -21q25 -11 37 -11q16 0 16 21v19h100v-47q0 -42 -19 -70t-63 -28q-28 0 -78 20l-51 22q-24 8 -28 8q-14 0 -14 -19v-22zM286 -10q-121 0 -189.5 70.5t-68.5 190.5q0 121 68.5 191.5t189.5 70.5q120 0 187.5 -70.5
t67.5 -191.5q0 -120 -67.5 -190.5t-187.5 -70.5zM286 122q61 0 85 28t24 101t-24 101.5t-85 28.5q-62 0 -86 -28.5t-24 -101.5t24 -101t86 -28z" />
    <glyph glyph-name="odieresis" unicode="&#xf6;" horiz-adv-x="569" 
d="M463 560h-148v132h148v-132zM255 560h-147v132h147v-132zM286 -10q-121 0 -189.5 70.5t-68.5 190.5q0 121 68.5 191.5t189.5 70.5q120 0 187.5 -70.5t67.5 -191.5q0 -120 -67.5 -190.5t-187.5 -70.5zM286 122q61 0 85 28t24 101t-24 101.5t-85 28.5q-62 0 -86 -28.5
t-24 -101.5t24 -101t86 -28z" />
    <glyph glyph-name="divide" unicode="&#xf7;" horiz-adv-x="503" 
d="M338 465h-173v156h173v-156zM486 273h-447v124h447v-124zM338 49h-173v156h173v-156z" />
    <glyph glyph-name="oslash" unicode="&#xf8;" horiz-adv-x="569" 
d="M286 -10q-101 0 -169 52l-74 -67l-55 60l76 69q-36 60 -36 147q0 121 68.5 191.5t189.5 70.5q101 0 167 -52l72 65l55 -60l-74 -68q35 -61 35 -147q0 -120 -67.5 -190.5t-187.5 -70.5zM176 251q0 -18 2 -42l174 159q-23 13 -66 13q-62 0 -86 -28.5t-24 -101.5zM286 122
q61 0 85 28t24 101q0 18 -2 44l-175 -160q25 -13 68 -13z" />
    <glyph glyph-name="ugrave" unicode="&#xf9;" 
d="M386 560h-159l-156 125v5h204l111 -125v-5zM230 -10q-94 0 -140.5 54t-46.5 140v319h149v-289q0 -53 21.5 -74t77.5 -21q55 0 79 21.5t24 77.5v285h149v-503h-139v88h-5q-47 -98 -169 -98z" />
    <glyph glyph-name="uacute" unicode="&#xfa;" 
d="M382 560h-159v5l111 125h204v-5zM230 -10q-94 0 -140.5 54t-46.5 140v319h149v-289q0 -53 21.5 -74t77.5 -21q55 0 79 21.5t24 77.5v285h149v-503h-139v88h-5q-47 -98 -169 -98z" />
    <glyph glyph-name="ucircumflex" unicode="&#xfb;" 
d="M244 560h-144v5l104 125h178l103 -125v-5h-144l-43 56h-11zM230 -10q-94 0 -140.5 54t-46.5 140v319h149v-289q0 -53 21.5 -74t77.5 -21q55 0 79 21.5t24 77.5v285h149v-503h-139v88h-5q-47 -98 -169 -98z" />
    <glyph glyph-name="udieresis" unicode="&#xfc;" 
d="M471 560h-148v132h148v-132zM263 560h-147v132h147v-132zM230 -10q-94 0 -140.5 54t-46.5 140v319h149v-289q0 -53 21.5 -74t77.5 -21q55 0 79 21.5t24 77.5v285h149v-503h-139v88h-5q-47 -98 -169 -98z" />
    <glyph glyph-name="yacute" unicode="&#xfd;" horiz-adv-x="579" 
d="M379 560h-159v5l111 125h204v-5zM151 -170q-46 0 -92 11v124h84q30 0 43 7t24 30l9 19l-211 482h167l82 -210l36 -97h11l31 97l71 210h167l-224 -538q-32 -76 -77 -105.5t-121 -29.5z" />
    <glyph glyph-name="thorn" unicode="&#xfe;" horiz-adv-x="609" 
d="M195 -168h-149v838h149v-241h6q39 84 157 84q106 0 160.5 -70t54.5 -192q0 -121 -57 -191t-162 -70q-55 0 -95 21t-58 55h-6v-234zM195 211q0 -49 28 -71t83 -22q67 0 92.5 31t25.5 102q0 72 -25.5 103t-92.5 31q-55 0 -83 -22t-28 -71v-81z" />
    <glyph glyph-name="ydieresis" unicode="&#xff;" horiz-adv-x="579" 
d="M467 560h-148v132h148v-132zM259 560h-147v132h147v-132zM151 -170q-46 0 -92 11v124h84q30 0 43 7t24 30l9 19l-211 482h167l82 -210l36 -97h11l31 97l71 210h167l-224 -538q-32 -76 -77 -105.5t-121 -29.5z" />
    <glyph glyph-name="Amacron" unicode="&#x100;" horiz-adv-x="716" 
d="M512 743h-307v104h307v-104zM158 0h-156l247 670h218l247 -670h-163l-54 149h-284zM300 387l-38 -104h186l-38 104l-49 151h-10z" />
    <glyph glyph-name="amacron" unicode="&#x101;" horiz-adv-x="544" 
d="M424 572h-307v105h307v-105zM185 -10q-70 0 -114 36t-44 102q0 117 160 142l172 26v16q0 42 -21.5 56t-69.5 14q-46 0 -65.5 -15t-19.5 -53v-11h-143v11q0 90 64.5 144.5t170.5 54.5q110 0 168 -56.5t58 -158.5v-298h-139v68h-6q-57 -78 -171 -78zM170 140q0 -36 65 -36
q124 0 124 94l-144 -22q-45 -7 -45 -36z" />
    <glyph glyph-name="Abreve" unicode="&#x102;" horiz-adv-x="716" 
d="M359 720q-68 0 -109.5 34.5t-41.5 92.5v14h105v-10q0 -23 9.5 -31.5t36.5 -8.5t36 8t9 32v10h105v-14q0 -58 -41 -92.5t-109 -34.5zM158 0h-156l247 670h218l247 -670h-163l-54 149h-284zM300 387l-38 -104h186l-38 104l-49 151h-10z" />
    <glyph glyph-name="abreve" unicode="&#x103;" horiz-adv-x="544" 
d="M271 550q-68 0 -109.5 34.5t-41.5 92.5v14h105v-10q0 -23 9.5 -31.5t36.5 -8.5t36 8t9 32v10h105v-14q0 -58 -41 -92.5t-109 -34.5zM185 -10q-70 0 -114 36t-44 102q0 117 160 142l172 26v16q0 42 -21.5 56t-69.5 14q-46 0 -65.5 -15t-19.5 -53v-11h-143v11
q0 90 64.5 144.5t170.5 54.5q110 0 168 -56.5t58 -158.5v-298h-139v68h-6q-57 -78 -171 -78zM170 140q0 -36 65 -36q124 0 124 94l-144 -22q-45 -7 -45 -36z" />
    <glyph glyph-name="Aogonek" unicode="&#x104;" horiz-adv-x="716" 
d="M158 0h-156l247 670h218l247 -670l-44 -56q-13 -14 -13 -27q0 -14 23 -14h53v-90h-94q-96 0 -96 68q0 40 47 91l25 28h-64l-54 149h-284zM300 387l-38 -104h186l-38 104l-49 151h-10z" />
    <glyph glyph-name="aogonek" unicode="&#x105;" horiz-adv-x="544" 
d="M185 -10q-70 0 -114 36t-44 102q0 117 160 142l172 26v16q0 42 -21.5 56t-69.5 14q-46 0 -65.5 -15t-19.5 -53v-11h-143v11q0 90 64.5 144.5t170.5 54.5q110 0 168 -56.5t58 -158.5v-298l-44 -56q-13 -16 -13 -27q0 -14 24 -14h53v-90h-95q-96 0 -96 68q0 40 47 91l25 28
h-40v68h-6q-57 -78 -171 -78zM170 140q0 -36 65 -36q124 0 124 94l-144 -22q-45 -7 -45 -36z" />
    <glyph glyph-name="Cacute" unicode="&#x106;" horiz-adv-x="690" 
d="M444 730h-159v5l111 126h204v-5zM353 -10q-150 0 -235.5 93.5t-85.5 251.5t85.5 251.5t235.5 93.5q147 0 226 -72t79 -198v-9h-160v5q0 72 -33 100.5t-113 28.5q-88 0 -124 -42t-36 -158t36 -158t124 -42q80 0 113 28.5t33 100.5v5h160v-9q0 -126 -79 -198t-226 -72z" />
    <glyph glyph-name="cacute" unicode="&#x107;" horiz-adv-x="551" 
d="M365 560h-159v5l111 125h204v-5zM283 -10q-123 0 -189 69.5t-66 190.5q0 122 69 192.5t194 70.5q102 0 167 -57t65 -149v-12h-150v8q0 41 -23 58.5t-71 17.5q-55 0 -79 -29t-24 -99q0 -69 24 -98t79 -29q48 0 71 17.5t23 58.5v8h150v-12q0 -92 -67.5 -149t-172.5 -57z
" />
    <glyph glyph-name="Ccircumflex" unicode="&#x108;" horiz-adv-x="690" 
d="M305 730h-144v5l104 125h178l103 -125v-5h-144l-43 56h-11zM353 -10q-150 0 -235.5 93.5t-85.5 251.5t85.5 251.5t235.5 93.5q147 0 226 -72t79 -198v-9h-160v5q0 72 -33 100.5t-113 28.5q-88 0 -124 -42t-36 -158t36 -158t124 -42q80 0 113 28.5t33 100.5v5h160v-9
q0 -126 -79 -198t-226 -72z" />
    <glyph glyph-name="ccircumflex" unicode="&#x109;" horiz-adv-x="551" 
d="M227 560h-144v5l104 125h178l103 -125v-5h-144l-43 56h-11zM283 -10q-123 0 -189 69.5t-66 190.5q0 122 69 192.5t194 70.5q102 0 167 -57t65 -149v-12h-150v8q0 41 -23 58.5t-71 17.5q-55 0 -79 -29t-24 -99q0 -69 24 -98t79 -29q48 0 71 17.5t23 58.5v8h150v-12
q0 -92 -67.5 -149t-172.5 -57z" />
    <glyph glyph-name="Cdotaccent" unicode="&#x10a;" horiz-adv-x="690" 
d="M429 730h-149v132h149v-132zM353 -10q-150 0 -235.5 93.5t-85.5 251.5t85.5 251.5t235.5 93.5q147 0 226 -72t79 -198v-9h-160v5q0 72 -33 100.5t-113 28.5q-88 0 -124 -42t-36 -158t36 -158t124 -42q80 0 113 28.5t33 100.5v5h160v-9q0 -126 -79 -198t-226 -72z" />
    <glyph glyph-name="cdotaccent" unicode="&#x10b;" horiz-adv-x="551" 
d="M351 560h-149v132h149v-132zM283 -10q-123 0 -189 69.5t-66 190.5q0 122 69 192.5t194 70.5q102 0 167 -57t65 -149v-12h-150v8q0 41 -23 58.5t-71 17.5q-55 0 -79 -29t-24 -99q0 -69 24 -98t79 -29q48 0 71 17.5t23 58.5v8h150v-12q0 -92 -67.5 -149t-172.5 -57z" />
    <glyph glyph-name="Ccaron" unicode="&#x10c;" horiz-adv-x="690" 
d="M403 860h144v-5l-104 -125h-178l-103 125v5h144l43 -56h11zM353 -10q-150 0 -235.5 93.5t-85.5 251.5t85.5 251.5t235.5 93.5q147 0 226 -72t79 -198v-9h-160v5q0 72 -33 100.5t-113 28.5q-88 0 -124 -42t-36 -158t36 -158t124 -42q80 0 113 28.5t33 100.5v5h160v-9
q0 -126 -79 -198t-226 -72z" />
    <glyph glyph-name="ccaron" unicode="&#x10d;" horiz-adv-x="551" 
d="M365 560h-178l-104 125v5h144l43 -56h11l43 56h144v-5zM283 -10q-123 0 -189 69.5t-66 190.5q0 122 69 192.5t194 70.5q102 0 167 -57t65 -149v-12h-150v8q0 41 -23 58.5t-71 17.5q-55 0 -79 -29t-24 -99q0 -69 24 -98t79 -29q48 0 71 17.5t23 58.5v8h150v-12
q0 -92 -67.5 -149t-172.5 -57z" />
    <glyph glyph-name="Dcaron" unicode="&#x10e;" horiz-adv-x="678" 
d="M391 860h144v-5l-104 -125h-178l-103 125v5h144l43 -56h11zM303 0h-256v670h256q162 0 254.5 -89t92.5 -246t-92.5 -246t-254.5 -89zM301 535h-104v-400h104q105 0 146.5 42t41.5 158t-41.5 158t-146.5 42z" />
    <glyph glyph-name="dcaron" unicode="&#x10f;" horiz-adv-x="760" 
d="M246 -10q-105 0 -161.5 70t-56.5 191q0 120 58 191t160 71q104 0 146 -76h6v233h149v-670h-139v74h-5q-40 -84 -157 -84zM643 381h-47v89h43q15 0 21 5.5t6 22.5v16h-76v156h173v-170q0 -119 -120 -119zM177 251q0 -71 24 -102t87 -31q55 0 82.5 21.5t27.5 71.5v81
q0 50 -27.5 71.5t-82.5 21.5q-63 0 -87 -31t-24 -103z" />
    <glyph glyph-name="Dcroat" unicode="&#x110;" horiz-adv-x="737" 
d="M362 0h-256v268h-98v134h98v268h256q162 0 254.5 -89t92.5 -246t-92.5 -246t-254.5 -89zM413 268h-157v-133h104q105 0 146.5 42t41.5 158t-41.5 158t-146.5 42h-104v-133h157v-134z" />
    <glyph glyph-name="dcroat" unicode="&#x111;" horiz-adv-x="631" 
d="M247 -10q-105 0 -161.5 61.5t-56.5 168.5t55 169t157 62q55 0 94.5 -21.5t57.5 -54.5h6v122h-196v111h196v62h150v-62h74v-111h-74v-497h-139v73h-6q-40 -83 -157 -83zM179 220q0 -54 23.5 -78.5t86.5 -24.5q55 0 82.5 21t27.5 68v29q0 47 -27.5 68t-82.5 21
q-63 0 -86.5 -25t-23.5 -79z" />
    <glyph glyph-name="Emacron" unicode="&#x112;" horiz-adv-x="596" 
d="M457 743h-307v104h307v-104zM558 0h-511v670h511v-135h-361v-131h346v-134h-346v-135h361v-135z" />
    <glyph glyph-name="emacron" unicode="&#x113;" horiz-adv-x="553" 
d="M430 572h-307v105h307v-105zM280 -10q-126 0 -189 68.5t-63 191.5q0 121 68 192t185 71q112 0 176 -60.5t64 -160.5q0 -34 -7 -74h-345q2 -53 27 -75.5t86 -22.5q86 0 86 44v6h148v-10q0 -80 -63.5 -125t-172.5 -45zM276 390q-52 0 -76.5 -20t-29.5 -61h207
q2 39 -23.5 60t-77.5 21z" />
    <glyph glyph-name="Ebreve" unicode="&#x114;" horiz-adv-x="596" 
d="M304 720q-68 0 -109.5 34.5t-41.5 92.5v14h105v-10q0 -23 9.5 -31.5t36.5 -8.5t36 8t9 32v10h105v-14q0 -58 -41 -92.5t-109 -34.5zM558 0h-511v670h511v-135h-361v-131h346v-134h-346v-135h361v-135z" />
    <glyph glyph-name="ebreve" unicode="&#x115;" horiz-adv-x="553" 
d="M277 550q-68 0 -109.5 34.5t-41.5 92.5v14h105v-10q0 -23 9.5 -31.5t36.5 -8.5t36 8t9 32v10h105v-14q0 -58 -41 -92.5t-109 -34.5zM280 -10q-126 0 -189 68.5t-63 191.5q0 121 68 192t185 71q112 0 176 -60.5t64 -160.5q0 -34 -7 -74h-345q2 -53 27 -75.5t86 -22.5
q86 0 86 44v6h148v-10q0 -80 -63.5 -125t-172.5 -45zM276 390q-52 0 -76.5 -20t-29.5 -61h207q2 39 -23.5 60t-77.5 21z" />
    <glyph glyph-name="Edotaccent" unicode="&#x116;" horiz-adv-x="596" 
d="M378 730h-149v132h149v-132zM558 0h-511v670h511v-135h-361v-131h346v-134h-346v-135h361v-135z" />
    <glyph glyph-name="edotaccent" unicode="&#x117;" horiz-adv-x="553" 
d="M351 560h-149v132h149v-132zM280 -10q-126 0 -189 68.5t-63 191.5q0 121 68 192t185 71q112 0 176 -60.5t64 -160.5q0 -34 -7 -74h-345q2 -53 27 -75.5t86 -22.5q86 0 86 44v6h148v-10q0 -80 -63.5 -125t-172.5 -45zM276 390q-52 0 -76.5 -20t-29.5 -61h207
q2 39 -23.5 60t-77.5 21z" />
    <glyph glyph-name="Eogonek" unicode="&#x118;" horiz-adv-x="596" 
d="M543 270h-346v-135h361v-135l-44 -56q-13 -14 -13 -27q0 -14 23 -14h53v-90h-94q-96 0 -96 68q0 40 47 91l25 28h-412v670h511v-135h-361v-131h346v-134z" />
    <glyph glyph-name="eogonek" unicode="&#x119;" horiz-adv-x="553" 
d="M377 -187h-94q-96 0 -96 68q0 40 47 91l17 19q-112 8 -167.5 75.5t-55.5 183.5q0 121 68 192t185 71q112 0 176 -60.5t64 -160.5q0 -34 -7 -74h-345q2 -53 27 -75.5t86 -22.5q86 0 86 44v6h148v-10q0 -65 -42.5 -107t-118.5 -56l-41 -53q-13 -14 -13 -27q0 -14 23 -14h53
v-90zM276 390q-52 0 -76.5 -20t-29.5 -61h207q2 39 -23.5 60t-77.5 21z" />
    <glyph glyph-name="Ecaron" unicode="&#x11a;" horiz-adv-x="596" 
d="M352 860h144v-5l-104 -125h-178l-103 125v5h144l43 -56h11zM558 0h-511v670h511v-135h-361v-131h346v-134h-346v-135h361v-135z" />
    <glyph glyph-name="ecaron" unicode="&#x11b;" horiz-adv-x="553" 
d="M366 560h-178l-104 125v5h144l43 -56h11l43 56h144v-5zM280 -10q-126 0 -189 68.5t-63 191.5q0 121 68 192t185 71q112 0 176 -60.5t64 -160.5q0 -34 -7 -74h-345q2 -53 27 -75.5t86 -22.5q86 0 86 44v6h148v-10q0 -80 -63.5 -125t-172.5 -45zM276 390q-52 0 -76.5 -20
t-29.5 -61h207q2 39 -23.5 60t-77.5 21z" />
    <glyph glyph-name="Gcircumflex" unicode="&#x11c;" horiz-adv-x="711" 
d="M307 730h-144v5l104 125h178l103 -125v-5h-144l-43 56h-11zM325 -10q-143 0 -220 91.5t-77 253.5q0 158 87 251.5t239 93.5q147 0 226.5 -68t79.5 -189v-5h-159v4q0 63 -34 88t-116 25q-89 0 -126 -42.5t-37 -157.5q0 -117 39.5 -159.5t137.5 -42.5q83 0 118 20t35 78
h-183v125h327v-356h-139v102h-6q-18 -46 -64.5 -79t-127.5 -33z" />
    <glyph glyph-name="gcircumflex" unicode="&#x11d;" horiz-adv-x="593" 
d="M242 560h-144v5l104 125h178l103 -125v-5h-144l-43 56h-11zM241 53q-103 0 -158 61t-55 168t57 169t162 62q115 0 156 -83h5v73h139v-447q0 -236 -249 -236q-118 0 -181.5 50.5t-63.5 146.5h149q0 -40 19 -52.5t82 -12.5q59 0 77 18.5t18 77.5v78h-6q-18 -31 -57.5 -52
t-93.5 -21zM177 282q0 -55 24 -79.5t86 -24.5q111 0 111 89v30q0 47 -27.5 68t-82.5 21q-63 0 -87 -24.5t-24 -79.5z" />
    <glyph glyph-name="Gbreve" unicode="&#x11e;" horiz-adv-x="711" 
d="M356 720q-68 0 -109.5 34.5t-41.5 92.5v14h105v-10q0 -23 9.5 -31.5t36.5 -8.5t36 8t9 32v10h105v-14q0 -58 -41 -92.5t-109 -34.5zM325 -10q-143 0 -220 91.5t-77 253.5q0 158 87 251.5t239 93.5q147 0 226.5 -68t79.5 -189v-5h-159v4q0 63 -34 88t-116 25
q-89 0 -126 -42.5t-37 -157.5q0 -117 39.5 -159.5t137.5 -42.5q83 0 118 20t35 78h-183v125h327v-356h-139v102h-6q-18 -46 -64.5 -79t-127.5 -33z" />
    <glyph glyph-name="gbreve" unicode="&#x11f;" horiz-adv-x="593" 
d="M291 550q-68 0 -109.5 34.5t-41.5 92.5v14h105v-10q0 -23 9.5 -31.5t36.5 -8.5t36 8t9 32v10h105v-14q0 -58 -41 -92.5t-109 -34.5zM241 53q-103 0 -158 61t-55 168t57 169t162 62q115 0 156 -83h5v73h139v-447q0 -236 -249 -236q-118 0 -181.5 50.5t-63.5 146.5h149
q0 -40 19 -52.5t82 -12.5q59 0 77 18.5t18 77.5v78h-6q-18 -31 -57.5 -52t-93.5 -21zM177 282q0 -55 24 -79.5t86 -24.5q111 0 111 89v30q0 47 -27.5 68t-82.5 21q-63 0 -87 -24.5t-24 -79.5z" />
    <glyph glyph-name="Gdotaccent" unicode="&#x120;" horiz-adv-x="711" 
d="M431 730h-149v132h149v-132zM325 -10q-143 0 -220 91.5t-77 253.5q0 158 87 251.5t239 93.5q147 0 226.5 -68t79.5 -189v-5h-159v4q0 63 -34 88t-116 25q-89 0 -126 -42.5t-37 -157.5q0 -117 39.5 -159.5t137.5 -42.5q83 0 118 20t35 78h-183v125h327v-356h-139v102h-6
q-18 -46 -64.5 -79t-127.5 -33z" />
    <glyph glyph-name="gdotaccent" unicode="&#x121;" horiz-adv-x="593" 
d="M365 560h-149v132h149v-132zM241 53q-103 0 -158 61t-55 168t57 169t162 62q115 0 156 -83h5v73h139v-447q0 -236 -249 -236q-118 0 -181.5 50.5t-63.5 146.5h149q0 -40 19 -52.5t82 -12.5q59 0 77 18.5t18 77.5v78h-6q-18 -31 -57.5 -52t-93.5 -21zM177 282
q0 -55 24 -79.5t86 -24.5q111 0 111 89v30q0 47 -27.5 68t-82.5 21q-63 0 -87 -24.5t-24 -79.5z" />
    <glyph glyph-name="Gcommaaccent" unicode="&#x122;" horiz-adv-x="711" 
d="M325 -10q-143 0 -220 91.5t-77 253.5q0 158 87 251.5t239 93.5q147 0 226.5 -68t79.5 -189v-5h-159v4q0 63 -34 88t-116 25q-89 0 -126 -42.5t-37 -157.5q0 -117 39.5 -159.5t137.5 -42.5q83 0 118 20t35 78h-183v125h327v-356h-139v102h-6q-18 -46 -64.5 -79t-127.5 -33
zM350 -200h-139v5l80 125h187v-5z" />
    <glyph glyph-name="gcommaaccent" unicode="&#x123;" horiz-adv-x="593" 
d="M313 690h139v-5l-80 -125h-188v5zM241 53q-103 0 -158 61t-55 168t57 169t162 62q115 0 156 -83h5v73h139v-447q0 -236 -249 -236q-118 0 -181.5 50.5t-63.5 146.5h149q0 -40 19 -52.5t82 -12.5q59 0 77 18.5t18 77.5v78h-6q-18 -31 -57.5 -52t-93.5 -21zM177 282
q0 -55 24 -79.5t86 -24.5q111 0 111 89v30q0 47 -27.5 68t-82.5 21q-63 0 -87 -24.5t-24 -79.5z" />
    <glyph glyph-name="Hcircumflex" unicode="&#x124;" horiz-adv-x="686" 
d="M295 730h-144v5l104 125h178l103 -125v-5h-144l-43 56h-11zM197 0h-150v670h150v-266h292v266h150v-670h-150v270h-292v-270z" />
    <glyph glyph-name="hcircumflex" unicode="&#x125;" 
d="M72 730h-144v5l104 125h178l103 -125v-5h-144l-43 56h-11zM195 0h-149v670h149v-245h6q22 38 63.5 63t98.5 25q93 0 138.5 -54t45.5 -140v-319h-150v289q0 53 -21.5 74t-77.5 21q-55 0 -79 -22t-24 -78v-284z" />
    <glyph glyph-name="Hbar" unicode="&#x126;" horiz-adv-x="756" 
d="M232 0h-150v472h-74v130h74v68h150v-68h292v68h150v-68h74v-130h-74v-472h-150v270h-292v-270zM232 404h292v68h-292v-68z" />
    <glyph glyph-name="hbar" unicode="&#x127;" horiz-adv-x="628" 
d="M232 0h-150v496h-74v111h74v63h150v-63h196v-111h-196v-133h5q23 39 64.5 63.5t97.5 24.5q93 0 138.5 -54t45.5 -140v-257h-150v227q0 53 -21.5 74t-77.5 21q-55 0 -78.5 -22t-23.5 -78v-222z" />
    <glyph glyph-name="Itilde" unicode="&#x128;" horiz-adv-x="244" 
d="M45 727h-100v39q0 107 86 107q25 0 66 -18l48 -20q27 -12 37 -12q16 0 16 22v18h100v-46q0 -43 -19 -71t-63 -28q-26 0 -78 21l-51 21q-22 9 -28 9q-14 0 -14 -20v-22zM197 0h-150v670h150v-670z" />
    <glyph glyph-name="itilde" unicode="&#x129;" horiz-adv-x="226" 
d="M36 558h-100v39q0 106 86 106q23 0 66 -17l48 -21q25 -11 37 -11q16 0 16 21v19h100v-47q0 -42 -19 -70t-63 -28q-28 0 -78 20l-51 22q-24 8 -28 8q-14 0 -14 -19v-22zM188 0h-150v503h150v-503z" />
    <glyph glyph-name="Imacron" unicode="&#x12a;" horiz-adv-x="244" 
d="M276 743h-307v104h307v-104zM197 0h-150v670h150v-670z" />
    <glyph glyph-name="imacron" unicode="&#x12b;" horiz-adv-x="226" 
d="M267 572h-307v105h307v-105zM188 0h-150v503h150v-503z" />
    <glyph glyph-name="Ibreve" unicode="&#x12c;" horiz-adv-x="244" 
d="M122 720q-68 0 -109.5 34.5t-41.5 92.5v14h105v-10q0 -23 9.5 -31.5t36.5 -8.5t36 8t9 32v10h105v-14q0 -58 -41 -92.5t-109 -34.5zM197 0h-150v670h150v-670z" />
    <glyph glyph-name="ibreve" unicode="&#x12d;" horiz-adv-x="226" 
d="M113 550q-68 0 -109.5 34.5t-41.5 92.5v14h105v-10q0 -23 9.5 -31.5t36.5 -8.5t36 8t9 32v10h105v-14q0 -58 -41 -92.5t-109 -34.5zM188 0h-150v503h150v-503z" />
    <glyph glyph-name="Iogonek" unicode="&#x12e;" horiz-adv-x="244" 
d="M216 -187h-94q-96 0 -96 68q0 40 47 91l25 28h-51v670h150v-670l-44 -56q-13 -14 -13 -27q0 -14 23 -14h53v-90z" />
    <glyph glyph-name="iogonek" unicode="&#x12f;" horiz-adv-x="228" 
d="M187 560h-147l-2 110h149v-110zM209 -187h-94q-96 0 -96 68q0 40 47 91l25 28h-51v503h150v-503l-44 -56q-13 -14 -13 -27q0 -14 23 -14h53v-90z" />
    <glyph glyph-name="Idotaccent" unicode="&#x130;" horiz-adv-x="244" 
d="M196 730h-149v132h149v-132zM197 0h-150v670h150v-670z" />
    <glyph glyph-name="dotlessi" unicode="&#x131;" horiz-adv-x="226" 
d="M188 0h-150v503h150v-503z" />
    <glyph glyph-name="IJ" unicode="&#x132;" horiz-adv-x="816" 
d="M197 0h-150v670h150v-670zM511 -10q-142 0 -206.5 68.5t-64.5 198.5v20h159v-27q0 -68 19.5 -91.5t87.5 -23.5q67 0 86.5 23.5t19.5 91.5v420h160v-407q0 -273 -261 -273z" />
    <glyph glyph-name="ij" unicode="&#x133;" horiz-adv-x="492" 
d="M187 560h-147l-2 110h149v-110zM447 560h-150v110h150v-110zM190 0h-150v503h150v-503zM200 -168v126h40q37 0 47 8t10 36v501h150v-478q0 -108 -52 -151.5t-152 -43.5q-17 0 -43 2z" />
    <glyph glyph-name="Jcircumflex" unicode="&#x134;" horiz-adv-x="585" 
d="M413 730h-144v5l104 125h178l103 -125v-5h-144l-43 56h-11zM280 -10q-142 0 -206.5 68.5t-64.5 198.5v20h159v-27q0 -68 19.5 -91.5t87.5 -23.5q67 0 86.5 23.5t19.5 91.5v420h160v-407q0 -273 -261 -273z" />
    <glyph glyph-name="jcircumflex" unicode="&#x135;" horiz-adv-x="244" 
d="M73 560h-144v5l104 125h178l103 -125v-5h-144l-43 56h-11zM-49 -168v126h40q37 0 47 8t10 36v501h150v-478q0 -108 -52 -151.5t-152 -43.5q-17 0 -43 2z" />
    <glyph glyph-name="Kcommaaccent" unicode="&#x136;" horiz-adv-x="653" 
d="M197 0h-150v670h150v-267h127l157 267h170l-202 -332l199 -338h-172l-150 258h-129v-258zM304 -200h-139v5l80 125h187v-5z" />
    <glyph glyph-name="kcommaaccent" unicode="&#x137;" horiz-adv-x="553" 
d="M195 0h-149v670h149v-353h74l114 186h172l-164 -240l163 -263h-172l-110 183h-77v-183zM271 -200h-139v5l80 125h187v-5z" />
    <glyph glyph-name="Lacute" unicode="&#x139;" horiz-adv-x="561" 
d="M206 730h-159v5l111 126h204v-5zM543 0h-496v670h150v-535h346v-135z" />
    <glyph glyph-name="lacute" unicode="&#x13a;" horiz-adv-x="241" 
d="M205 727h-159v5l111 125h204v-5zM195 0h-149v670h149v-670z" />
    <glyph glyph-name="Lcommaaccent" unicode="&#x13b;" horiz-adv-x="561" 
d="M543 0h-496v670h150v-535h346v-135zM252 -200h-139v5l80 125h187v-5z" />
    <glyph glyph-name="lcommaaccent" unicode="&#x13c;" horiz-adv-x="241" 
d="M195 0h-149v670h149v-670zM78 -200h-139v5l80 125h187v-5z" />
    <glyph glyph-name="Lcaron" unicode="&#x13d;" horiz-adv-x="561" 
d="M543 0h-496v670h150v-535h346v-135zM377 381h-48v89h43q15 0 21 5.5t6 22.5v16h-76v156h174v-170q0 -119 -120 -119z" />
    <glyph glyph-name="lcaron" unicode="&#x13e;" horiz-adv-x="408" 
d="M195 0h-149v670h149v-670zM291 381h-47v89h43q15 0 21 5.5t6 22.5v16h-76v156h173v-170q0 -119 -120 -119z" />
    <glyph glyph-name="Ldot" unicode="&#x13f;" horiz-adv-x="561" 
d="M543 0h-496v670h150v-535h346v-135zM483 269h-150v132h150v-132z" />
    <glyph glyph-name="ldot" unicode="&#x140;" horiz-adv-x="375" 
d="M195 0h-149v670h149v-670zM384 269h-150v132h150v-132z" />
    <glyph glyph-name="Lslash" unicode="&#x141;" horiz-adv-x="609" 
d="M402 370l-157 -65v-170h346v-135h-496v244l-87 -36v140l87 36v286h150v-225l157 65v-140z" />
    <glyph glyph-name="lslash" unicode="&#x142;" horiz-adv-x="389" 
d="M269 0h-149v299l-72 -34l-42 86l114 54v265h149v-194l72 34l42 -86l-114 -54v-370z" />
    <glyph glyph-name="Nacute" unicode="&#x143;" horiz-adv-x="685" 
d="M433 730h-159v5l111 126h204v-5zM197 0h-150v670h160l217 -336l56 -90h10l-2 90v336h150v-670h-160l-208 317l-65 103h-10l2 -103v-317z" />
    <glyph glyph-name="nacute" unicode="&#x144;" 
d="M386 560h-159v5l111 125h204v-5zM195 0h-149v503h139v-88h6q46 98 169 98q93 0 140 -54t47 -140v-319h-150v289q0 53 -21.5 74t-77.5 21q-55 0 -79 -21.5t-24 -77.5v-285z" />
    <glyph glyph-name="Ncommaaccent" unicode="&#x145;" horiz-adv-x="685" 
d="M197 0h-150v670h160l217 -336l56 -90h10l-2 90v336h150v-670h-160l-208 317l-65 103h-10l2 -103v-317zM300 -200h-139v5l80 125h187v-5z" />
    <glyph glyph-name="ncommaaccent" unicode="&#x146;" 
d="M195 0h-149v503h139v-88h6q46 98 169 98q93 0 140 -54t47 -140v-319h-150v289q0 53 -21.5 74t-77.5 21q-55 0 -79 -21.5t-24 -77.5v-285zM254 -200h-139v5l80 125h187v-5z" />
    <glyph glyph-name="Ncaron" unicode="&#x147;" horiz-adv-x="685" 
d="M392 860h144v-5l-104 -125h-178l-103 125v5h144l43 -56h11zM197 0h-150v670h160l217 -336l56 -90h10l-2 90v336h150v-670h-160l-208 317l-65 103h-10l2 -103v-317z" />
    <glyph glyph-name="ncaron" unicode="&#x148;" 
d="M386 560h-178l-104 125v5h144l43 -56h11l43 56h144v-5zM195 0h-149v503h139v-88h6q46 98 169 98q93 0 140 -54t47 -140v-319h-150v289q0 53 -21.5 74t-77.5 21q-55 0 -79 -21.5t-24 -77.5v-285z" />
    <glyph glyph-name="Eng" unicode="&#x14a;" horiz-adv-x="687" 
d="M419 -170h-33v135h49q34 0 44.5 7t10.5 29l-282 414h-10v-415h-150v670h160l271 -416h11v416h149v-631q0 -116 -56 -162.5t-164 -46.5z" />
    <glyph glyph-name="eng" unicode="&#x14b;" 
d="M195 0h-149v503h139v-88h6q46 98 169 98q93 0 140 -54t47 -140v-286q0 -112 -56 -157.5t-164 -45.5h-32v135h41q40 0 50.5 8.5t10.5 36.5v279q0 53 -21.5 74t-77.5 21q-55 0 -79 -21.5t-24 -77.5v-285z" />
    <glyph glyph-name="Omacron" unicode="&#x14c;" horiz-adv-x="707" 
d="M508 743h-307v104h307v-104zM354 -10q-149 0 -235.5 93.5t-86.5 251.5t86.5 251.5t235.5 93.5t235 -93.5t86 -251.5t-86 -251.5t-235 -93.5zM354 135q89 0 125 42.5t36 157.5t-36 157.5t-125 42.5t-125.5 -42.5t-36.5 -157.5t36.5 -157.5t125.5 -42.5z" />
    <glyph glyph-name="omacron" unicode="&#x14d;" horiz-adv-x="569" 
d="M439 572h-307v105h307v-105zM286 -10q-121 0 -189.5 70.5t-68.5 190.5q0 121 68.5 191.5t189.5 70.5q120 0 187.5 -70.5t67.5 -191.5q0 -120 -67.5 -190.5t-187.5 -70.5zM286 122q61 0 85 28t24 101t-24 101.5t-85 28.5q-62 0 -86 -28.5t-24 -101.5t24 -101t86 -28z" />
    <glyph glyph-name="Obreve" unicode="&#x14e;" horiz-adv-x="707" 
d="M354 720q-68 0 -109.5 34.5t-41.5 92.5v14h105v-10q0 -23 9.5 -31.5t36.5 -8.5t36 8t9 32v10h105v-14q0 -58 -41 -92.5t-109 -34.5zM354 -10q-149 0 -235.5 93.5t-86.5 251.5t86.5 251.5t235.5 93.5t235 -93.5t86 -251.5t-86 -251.5t-235 -93.5zM354 135q89 0 125 42.5
t36 157.5t-36 157.5t-125 42.5t-125.5 -42.5t-36.5 -157.5t36.5 -157.5t125.5 -42.5z" />
    <glyph glyph-name="obreve" unicode="&#x14f;" horiz-adv-x="569" 
d="M285 550q-68 0 -109.5 34.5t-41.5 92.5v14h105v-10q0 -23 9.5 -31.5t36.5 -8.5t36 8t9 32v10h105v-14q0 -58 -41 -92.5t-109 -34.5zM286 -10q-121 0 -189.5 70.5t-68.5 190.5q0 121 68.5 191.5t189.5 70.5q120 0 187.5 -70.5t67.5 -191.5q0 -120 -67.5 -190.5
t-187.5 -70.5zM286 122q61 0 85 28t24 101t-24 101.5t-85 28.5q-62 0 -86 -28.5t-24 -101.5t24 -101t86 -28z" />
    <glyph glyph-name="Ohungarumlaut" unicode="&#x150;" horiz-adv-x="707" 
d="M499 730h-128v5l67 126h169v-5zM294 730h-129v5l67 126h170v-5zM354 -10q-149 0 -235.5 93.5t-86.5 251.5t86.5 251.5t235.5 93.5t235 -93.5t86 -251.5t-86 -251.5t-235 -93.5zM354 135q89 0 125 42.5t36 157.5t-36 157.5t-125 42.5t-125.5 -42.5t-36.5 -157.5
t36.5 -157.5t125.5 -42.5z" />
    <glyph glyph-name="ohungarumlaut" unicode="&#x151;" horiz-adv-x="569" 
d="M225 560h-128v5l66 125h170v-5zM431 560h-128v5l66 125h170v-5zM286 -10q-121 0 -189.5 70.5t-68.5 190.5q0 121 68.5 191.5t189.5 70.5q120 0 187.5 -70.5t67.5 -191.5q0 -120 -67.5 -190.5t-187.5 -70.5zM286 122q61 0 85 28t24 101t-24 101.5t-85 28.5
q-62 0 -86 -28.5t-24 -101.5t24 -101t86 -28z" />
    <glyph glyph-name="OE" unicode="&#x152;" horiz-adv-x="1035" 
d="M997 0h-622q-162 0 -254.5 89t-92.5 246t92.5 246t254.5 89h622v-135h-361v-131h346v-134h-346v-135h361v-135zM377 135h109v400h-109q-105 0 -146.5 -42t-41.5 -158t41.5 -158t146.5 -42z" />
    <glyph glyph-name="oe" unicode="&#x153;" horiz-adv-x="926" 
d="M286 -10q-121 0 -189.5 70.5t-68.5 190.5q0 121 68.5 191.5t189.5 70.5q117 0 185 -68q68 68 183 68q112 0 176 -60.5t64 -160.5q0 -34 -7 -74h-345q2 -53 27 -75.5t86 -22.5q86 0 86 44v6h148v-10q0 -80 -63.5 -125t-172.5 -45q-122 0 -185 65q-68 -65 -182 -65z
M649 390q-52 0 -76.5 -20t-29.5 -61h207q2 39 -23.5 60t-77.5 21zM286 122q61 0 85 28t24 101t-24 101.5t-85 28.5q-62 0 -86 -28.5t-24 -101.5t24 -101t86 -28z" />
    <glyph glyph-name="Racute" unicode="&#x154;" horiz-adv-x="640" 
d="M400 730h-159v5l111 126h204v-5zM197 0h-150v670h308q120 0 184.5 -53t64.5 -151q0 -169 -169 -184v-10q41 -13 66 -37.5t46 -66.5l85 -168h-175l-79 155q-25 48 -48 65.5t-73 17.5h-60v-238zM197 535v-173h165q53 0 73 19t20 68q0 48 -20.5 67t-72.5 19h-165z" />
    <glyph glyph-name="racute" unicode="&#x155;" horiz-adv-x="493" 
d="M350 560h-159v5l111 125h204v-5zM195 0h-149v503h139v-81h6q45 91 141 91q75 0 109.5 -48.5t34.5 -130.5v-46h-149v27q0 40 -14 55.5t-50 15.5t-52 -15.5t-16 -55.5v-315z" />
    <glyph glyph-name="Rcommaaccent" unicode="&#x156;" horiz-adv-x="640" 
d="M197 0h-150v670h308q120 0 184.5 -53t64.5 -151q0 -169 -169 -184v-10q41 -13 66 -37.5t46 -66.5l85 -168h-175l-79 155q-25 48 -48 65.5t-73 17.5h-60v-238zM197 535v-173h165q53 0 73 19t20 68q0 48 -20.5 67t-72.5 19h-165zM269 -200h-139v5l80 125h187v-5z" />
    <glyph glyph-name="rcommaaccent" unicode="&#x157;" horiz-adv-x="493" 
d="M195 0h-149v503h139v-81h6q45 91 141 91q75 0 109.5 -48.5t34.5 -130.5v-46h-149v27q0 40 -14 55.5t-50 15.5t-52 -15.5t-16 -55.5v-315zM82 -200h-139v5l80 125h187v-5z" />
    <glyph glyph-name="Rcaron" unicode="&#x158;" horiz-adv-x="640" 
d="M359 860h144v-5l-104 -125h-178l-103 125v5h144l43 -56h11zM197 0h-150v670h308q120 0 184.5 -53t64.5 -151q0 -169 -169 -184v-10q41 -13 66 -37.5t46 -66.5l85 -168h-175l-79 155q-25 48 -48 65.5t-73 17.5h-60v-238zM197 535v-173h165q53 0 73 19t20 68q0 48 -20.5 67
t-72.5 19h-165z" />
    <glyph glyph-name="rcaron" unicode="&#x159;" horiz-adv-x="493" 
d="M350 560h-178l-104 125v5h144l43 -56h11l43 56h144v-5zM195 0h-149v503h139v-81h6q45 91 141 91q75 0 109.5 -48.5t34.5 -130.5v-46h-149v27q0 40 -14 55.5t-50 15.5t-52 -15.5t-16 -55.5v-315z" />
    <glyph glyph-name="Sacute" unicode="&#x15a;" horiz-adv-x="619" 
d="M399 730h-159v5l111 126h204v-5zM335 -10q-288 0 -288 228v13h147v-10q0 -56 29 -75.5t119 -19.5q62 0 84 13.5t22 48.5q0 36 -18.5 51t-85.5 26l-118 21q-182 31 -182 191q0 85 66.5 144t200.5 59q137 0 204 -63t67 -169v-8h-148v11q0 53 -27 73t-101 20
q-63 0 -88 -14.5t-25 -46.5t18 -44.5t78 -23.5l119 -23q189 -36 189 -199q0 -88 -64 -145.5t-198 -57.5z" />
    <glyph glyph-name="sacute" unicode="&#x15b;" horiz-adv-x="505" 
d="M342 560h-159v5l111 125h204v-5zM267 -10q-235 0 -235 181v3h143v-21q0 -27 19.5 -36t75.5 -9q44 0 57.5 7t13.5 27t-15 28t-66 17l-76 14q-77 14 -115 49.5t-38 103.5q0 72 57 115.5t162 43.5q96 0 156.5 -44.5t60.5 -126.5v-14h-143v14q0 27 -16 39t-62 12
q-43 0 -58.5 -9t-15.5 -28q0 -18 12.5 -26t56.5 -17l92 -19q79 -15 114.5 -51.5t35.5 -98.5q0 -71 -56.5 -112.5t-159.5 -41.5z" />
    <glyph glyph-name="Scircumflex" unicode="&#x15c;" horiz-adv-x="619" 
d="M260 730h-144v5l104 125h178l103 -125v-5h-144l-43 56h-11zM335 -10q-288 0 -288 228v13h147v-10q0 -56 29 -75.5t119 -19.5q62 0 84 13.5t22 48.5q0 36 -18.5 51t-85.5 26l-118 21q-182 31 -182 191q0 85 66.5 144t200.5 59q137 0 204 -63t67 -169v-8h-148v11
q0 53 -27 73t-101 20q-63 0 -88 -14.5t-25 -46.5t18 -44.5t78 -23.5l119 -23q189 -36 189 -199q0 -88 -64 -145.5t-198 -57.5z" />
    <glyph glyph-name="scircumflex" unicode="&#x15d;" horiz-adv-x="505" 
d="M204 560h-144v5l104 125h178l103 -125v-5h-144l-43 56h-11zM267 -10q-235 0 -235 181v3h143v-21q0 -27 19.5 -36t75.5 -9q44 0 57.5 7t13.5 27t-15 28t-66 17l-76 14q-77 14 -115 49.5t-38 103.5q0 72 57 115.5t162 43.5q96 0 156.5 -44.5t60.5 -126.5v-14h-143v14
q0 27 -16 39t-62 12q-43 0 -58.5 -9t-15.5 -28q0 -18 12.5 -26t56.5 -17l92 -19q79 -15 114.5 -51.5t35.5 -98.5q0 -71 -56.5 -112.5t-159.5 -41.5z" />
    <glyph glyph-name="Scedilla" unicode="&#x15e;" horiz-adv-x="619" 
d="M347 -229h-102v79h100q28 0 28 18q0 11 -6 14.5t-22 3.5h-76v107q-222 25 -222 225v13h147v-10q0 -56 29 -75.5t119 -19.5q62 0 84 13.5t22 48.5q0 36 -18.5 51t-85.5 26l-118 21q-182 31 -182 191q0 85 66.5 144t200.5 59q137 0 204 -63t67 -169v-8h-148v11q0 53 -27 73
t-101 20q-63 0 -88 -14.5t-25 -46.5t18 -44.5t78 -23.5l119 -23q189 -36 189 -199q0 -86 -61 -143t-188 -60v-33h5q51 0 79.5 -24.5t28.5 -66.5q0 -44 -30 -69.5t-84 -25.5z" />
    <glyph glyph-name="scedilla" unicode="&#x15f;" horiz-adv-x="505" 
d="M290 -229h-102v79h100q28 0 28 18q0 11 -6 14.5t-22 3.5h-76v107q-180 19 -180 178v3h143v-21q0 -27 19.5 -36t75.5 -9q44 0 57.5 7t13.5 27t-15 28t-66 17l-76 14q-77 14 -115 49.5t-38 103.5q0 72 57 115.5t162 43.5q96 0 156.5 -44.5t60.5 -126.5v-14h-143v14
q0 27 -16 39t-62 12q-43 0 -58.5 -9t-15.5 -28q0 -18 12.5 -26t56.5 -17l92 -19q79 -15 114.5 -51.5t35.5 -98.5q0 -67 -50 -108t-142 -45v-34h5q51 0 79.5 -24.5t28.5 -66.5q0 -44 -30 -69.5t-84 -25.5z" />
    <glyph glyph-name="Scaron" unicode="&#x160;" horiz-adv-x="619" 
d="M358 860h144v-5l-104 -125h-178l-103 125v5h144l43 -56h11zM335 -10q-288 0 -288 228v13h147v-10q0 -56 29 -75.5t119 -19.5q62 0 84 13.5t22 48.5q0 36 -18.5 51t-85.5 26l-118 21q-182 31 -182 191q0 85 66.5 144t200.5 59q137 0 204 -63t67 -169v-8h-148v11
q0 53 -27 73t-101 20q-63 0 -88 -14.5t-25 -46.5t18 -44.5t78 -23.5l119 -23q189 -36 189 -199q0 -88 -64 -145.5t-198 -57.5z" />
    <glyph glyph-name="scaron" unicode="&#x161;" horiz-adv-x="505" 
d="M342 560h-178l-104 125v5h144l43 -56h11l43 56h144v-5zM267 -10q-235 0 -235 181v3h143v-21q0 -27 19.5 -36t75.5 -9q44 0 57.5 7t13.5 27t-15 28t-66 17l-76 14q-77 14 -115 49.5t-38 103.5q0 72 57 115.5t162 43.5q96 0 156.5 -44.5t60.5 -126.5v-14h-143v14
q0 27 -16 39t-62 12q-43 0 -58.5 -9t-15.5 -28q0 -18 12.5 -26t56.5 -17l92 -19q79 -15 114.5 -51.5t35.5 -98.5q0 -71 -56.5 -112.5t-159.5 -41.5z" />
    <glyph glyph-name="Tcedilla" unicode="&#x162;" horiz-adv-x="586" 
d="M368 0h-41v-43h5q51 0 79.5 -24.5t28.5 -66.5q0 -44 -30 -69.5t-84 -25.5h-102v79h100q28 0 28 18q0 11 -6 14.5t-22 3.5h-76v114h-30v535h-216v135h582v-135h-216v-535z" />
    <glyph glyph-name="tcedilla" unicode="&#x163;" horiz-adv-x="400" 
d="M278 -2q-17 0 -25 1v-42h5q51 0 79.5 -24.5t28.5 -66.5q0 -44 -30 -69.5t-84 -25.5h-102v79h100q28 0 28 18q0 11 -6 14.5t-22 3.5h-76v117h39q-129 22 -129 162v214h-80v124h84l28 117h118v-117h142v-124h-142v-197q0 -32 15 -40.5t65 -8.5h62v-125q-48 -10 -98 -10z
" />
    <glyph glyph-name="Tcaron" unicode="&#x164;" horiz-adv-x="586" 
d="M342 860h144v-5l-104 -125h-178l-103 125v5h144l43 -56h11zM368 0h-150v535h-216v135h582v-135h-216v-535z" />
    <glyph glyph-name="tcaron" unicode="&#x165;" horiz-adv-x="400" 
d="M310 529h-47v89h43q15 0 21 5.5t6 22.5v16h-76v156h173v-170q0 -119 -120 -119zM278 -2q-100 0 -147 39.5t-47 127.5v214h-80v124h84l28 117h118v-117h142v-124h-142v-197q0 -32 15 -40.5t65 -8.5h62v-125q-48 -10 -98 -10z" />
    <glyph glyph-name="Tbar" unicode="&#x166;" horiz-adv-x="586" 
d="M368 0h-150v263h-167v135h167v137h-216v135h582v-135h-216v-137h168v-135h-168v-263z" />
    <glyph glyph-name="tbar" unicode="&#x167;" horiz-adv-x="403" 
d="M4 202v122h83v57h-83v122h87l28 117h118v-117h142v-122h-142v-57h142v-122h-142v-20q0 -32 15 -40.5t65 -8.5h62v-125q-48 -10 -98 -10q-100 0 -147 39.5t-47 127.5v37h-83z" />
    <glyph glyph-name="Utilde" unicode="&#x168;" horiz-adv-x="675" 
d="M261 727h-100v39q0 107 86 107q25 0 66 -18l48 -20q27 -12 37 -12q16 0 16 22v18h100v-46q0 -43 -19 -71t-63 -28q-26 0 -78 21l-51 21q-22 9 -28 9q-14 0 -14 -20v-22zM338 -10q-144 0 -219 71.5t-75 199.5v409h149v-407q0 -72 31 -100t114 -28q82 0 113 28t31 100v407
h150v-409q0 -128 -75 -199.5t-219 -71.5z" />
    <glyph glyph-name="utilde" unicode="&#x169;" 
d="M216 558h-100v39q0 106 86 106q23 0 66 -17l48 -21q25 -11 37 -11q16 0 16 21v19h100v-47q0 -42 -19 -70t-63 -28q-28 0 -78 20l-51 22q-24 8 -28 8q-14 0 -14 -19v-22zM230 -10q-94 0 -140.5 54t-46.5 140v319h149v-289q0 -53 21.5 -74t77.5 -21q55 0 79 21.5t24 77.5
v285h149v-503h-139v88h-5q-47 -98 -169 -98z" />
    <glyph glyph-name="Umacron" unicode="&#x16a;" horiz-adv-x="675" 
d="M491 743h-307v104h307v-104zM338 -10q-144 0 -219 71.5t-75 199.5v409h149v-407q0 -72 31 -100t114 -28q82 0 113 28t31 100v407h150v-409q0 -128 -75 -199.5t-219 -71.5z" />
    <glyph glyph-name="umacron" unicode="&#x16b;" 
d="M447 572h-307v105h307v-105zM230 -10q-94 0 -140.5 54t-46.5 140v319h149v-289q0 -53 21.5 -74t77.5 -21q55 0 79 21.5t24 77.5v285h149v-503h-139v88h-5q-47 -98 -169 -98z" />
    <glyph glyph-name="Ubreve" unicode="&#x16c;" horiz-adv-x="675" 
d="M338 720q-68 0 -109.5 34.5t-41.5 92.5v14h105v-10q0 -23 9.5 -31.5t36.5 -8.5t36 8t9 32v10h105v-14q0 -58 -41 -92.5t-109 -34.5zM338 -10q-144 0 -219 71.5t-75 199.5v409h149v-407q0 -72 31 -100t114 -28q82 0 113 28t31 100v407h150v-409q0 -128 -75 -199.5
t-219 -71.5z" />
    <glyph glyph-name="ubreve" unicode="&#x16d;" 
d="M293 550q-68 0 -109.5 34.5t-41.5 92.5v14h105v-10q0 -23 9.5 -31.5t36.5 -8.5t36 8t9 32v10h105v-14q0 -58 -41 -92.5t-109 -34.5zM230 -10q-94 0 -140.5 54t-46.5 140v319h149v-289q0 -53 21.5 -74t77.5 -21q55 0 79 21.5t24 77.5v285h149v-503h-139v88h-5
q-47 -98 -169 -98z" />
    <glyph glyph-name="Uring" unicode="&#x16e;" horiz-adv-x="675" 
d="M338 714q-46 0 -74 24t-28 64t28 64t74 24t74 -24t28 -64t-28 -64t-74 -24zM338 775q22 0 30 5.5t8 21.5t-8 21.5t-30 5.5t-30 -5.5t-8 -21.5t8 -21.5t30 -5.5zM338 -10q-144 0 -219 71.5t-75 199.5v409h149v-407q0 -72 31 -100t114 -28q82 0 113 28t31 100v407h150v-409
q0 -128 -75 -199.5t-219 -71.5z" />
    <glyph glyph-name="uring" unicode="&#x16f;" 
d="M293 544q-46 0 -74 24t-28 64t28 64t74 24t74 -24t28 -64t-28 -64t-74 -24zM293 605q22 0 30 5.5t8 21.5t-8 21.5t-30 5.5t-30 -5.5t-8 -21.5t8 -21.5t30 -5.5zM230 -10q-94 0 -140.5 54t-46.5 140v319h149v-289q0 -53 21.5 -74t77.5 -21q55 0 79 21.5t24 77.5v285h149
v-503h-139v88h-5q-47 -98 -169 -98z" />
    <glyph glyph-name="Uhungarumlaut" unicode="&#x170;" horiz-adv-x="675" 
d="M483 730h-128v5l67 126h169v-5zM278 730h-129v5l67 126h170v-5zM338 -10q-144 0 -219 71.5t-75 199.5v409h149v-407q0 -72 31 -100t114 -28q82 0 113 28t31 100v407h150v-409q0 -128 -75 -199.5t-219 -71.5z" />
    <glyph glyph-name="uhungarumlaut" unicode="&#x171;" 
d="M233 560h-128v5l66 125h170v-5zM439 560h-128v5l66 125h170v-5zM230 -10q-94 0 -140.5 54t-46.5 140v319h149v-289q0 -53 21.5 -74t77.5 -21q55 0 79 21.5t24 77.5v285h149v-503h-139v88h-5q-47 -98 -169 -98z" />
    <glyph glyph-name="Uogonek" unicode="&#x172;" horiz-adv-x="675" 
d="M433 -187h-94q-96 0 -96 68q0 40 47 91l17 19q-129 8 -196 79t-67 191v409h149v-407q0 -72 31 -100t114 -28q82 0 113 28t31 100v407h150v-409q0 -110 -56.5 -179t-165.5 -87l-40 -51q-13 -14 -13 -27q0 -14 23 -14h53v-90z" />
    <glyph glyph-name="uogonek" unicode="&#x173;" 
d="M230 -10q-94 0 -140.5 54t-46.5 140v319h149v-289q0 -53 21.5 -74t77.5 -21q55 0 79 21.5t24 77.5v285h149v-503l-44 -56q-13 -14 -13 -27q0 -14 23 -14h53v-90h-94q-96 0 -96 68q0 40 47 91l25 28h-40v88h-5q-47 -98 -169 -98z" />
    <glyph glyph-name="Wcircumflex" unicode="&#x174;" horiz-adv-x="986" 
d="M444 730h-144v5l104 125h178l103 -125v-5h-144l-43 56h-11zM363 0h-220l-135 670h174l51 -302l24 -221h11l41 221l79 302h213l79 -300l42 -223h11l24 223l51 300h170l-135 -670h-219l-81 297l-45 212h-10l-45 -212z" />
    <glyph glyph-name="wcircumflex" unicode="&#x175;" horiz-adv-x="834" 
d="M369 560h-144v5l104 125h178l103 -125v-5h-144l-43 56h-11zM321 0h-196l-117 503h165l33 -232l19 -151h11l28 151l61 232h191l62 -233l27 -150h10l18 150l35 233h158l-117 -503h-196l-65 239l-25 132h-11l-25 -132z" />
    <glyph glyph-name="Ycircumflex" unicode="&#x176;" horiz-adv-x="668" 
d="M285 730h-144v5l104 125h178l103 -125v-5h-144l-43 56h-11zM409 0h-150v242l-261 428h170l105 -176l58 -99h10l57 99l105 176h167l-261 -428v-242z" />
    <glyph glyph-name="ycircumflex" unicode="&#x177;" horiz-adv-x="579" 
d="M241 560h-144v5l104 125h178l103 -125v-5h-144l-43 56h-11zM151 -170q-46 0 -92 11v124h84q30 0 43 7t24 30l9 19l-211 482h167l82 -210l36 -97h11l31 97l71 210h167l-224 -538q-32 -76 -77 -105.5t-121 -29.5z" />
    <glyph glyph-name="Ydieresis" unicode="&#x178;" horiz-adv-x="668" 
d="M511 730h-147v132h147v-132zM304 730h-147v132h147v-132zM409 0h-150v242l-261 428h170l105 -176l58 -99h10l57 99l105 176h167l-261 -428v-242z" />
    <glyph glyph-name="Zacute" unicode="&#x179;" horiz-adv-x="602" 
d="M391 730h-159v5l111 126h204v-5zM582 0h-562v124l344 401v10h-325v135h529v-124l-347 -401v-10h361v-135z" />
    <glyph glyph-name="zacute" unicode="&#x17a;" horiz-adv-x="547" 
d="M363 560h-159v5l111 125h204v-5zM519 0h-491v115l201 188l72 60l-1 11l-71 -2h-186v131h461v-126l-210 -185l-63 -52l1 -10l62 1h225v-131z" />
    <glyph glyph-name="Zdotaccent" unicode="&#x17b;" horiz-adv-x="602" 
d="M376 730h-149v132h149v-132zM582 0h-562v124l344 401v10h-325v135h529v-124l-347 -401v-10h361v-135z" />
    <glyph glyph-name="zdotaccent" unicode="&#x17c;" horiz-adv-x="547" 
d="M348 560h-149v132h149v-132zM519 0h-491v115l201 188l72 60l-1 11l-71 -2h-186v131h461v-126l-210 -185l-63 -52l1 -10l62 1h225v-131z" />
    <glyph glyph-name="Zcaron" unicode="&#x17d;" horiz-adv-x="602" 
d="M350 860h144v-5l-104 -125h-178l-103 125v5h144l43 -56h11zM582 0h-562v124l344 401v10h-325v135h529v-124l-347 -401v-10h361v-135z" />
    <glyph glyph-name="zcaron" unicode="&#x17e;" horiz-adv-x="547" 
d="M363 560h-178l-104 125v5h144l43 -56h11l43 56h144v-5zM519 0h-491v115l201 188l72 60l-1 11l-71 -2h-186v131h461v-126l-210 -185l-63 -52l1 -10l62 1h225v-131z" />
    <glyph glyph-name="florin" unicode="&#x192;" horiz-adv-x="430" 
d="M-14 -170h-55l24 135h38q61 0 81.5 15t29.5 65l39 223h-105l23 134h106l8 47q20 115 89.5 168t199.5 53h34l-23 -135h-38q-61 0 -82 -15t-30 -65l-9 -53h135l-24 -134h-134l-38 -217q-22 -122 -83.5 -171.5t-185.5 -49.5z" />
    <glyph glyph-name="AEacute" unicode="&#x1fc;" horiz-adv-x="1094" 
d="M752 730h-159v5l111 126h204v-5zM184 0h-186l454 670h604v-135h-361v-131h346v-134h-346v-135h361v-135h-511v148h-265zM536 541l-168 -258h177v258h-9z" />
    <glyph glyph-name="aeacute" unicode="&#x1fd;" horiz-adv-x="886" 
d="M529 560h-159v5l111 125h204v-5zM202 -10q-82 0 -128.5 35t-46.5 104q0 118 158 141l174 26v16q0 41 -21 55.5t-69 14.5q-46 0 -65.5 -15.5t-19.5 -53.5v-11h-144v12q0 90 64.5 144.5t170.5 54.5q109 0 169 -58q67 58 175 58q109 0 172 -61t63 -161q0 -41 -6 -75h-347
q3 -54 29 -75t85 -21q87 0 87 44v6h148v-10q0 -80 -64 -125t-172 -45q-143 0 -207 89q-64 -89 -205 -89zM609 388q-52 0 -76.5 -19.5t-29.5 -59.5h208q1 38 -25 58.5t-77 20.5zM170 140q0 -36 67 -36q127 0 127 95l-149 -23q-45 -7 -45 -36z" />
    <glyph glyph-name="Oslashacute" unicode="&#x1fe;" horiz-adv-x="707" 
d="M419 730h-159v5l111 126h204v-5zM354 -10q-123 0 -205 65l-86 -86l-77 74l93 94q-47 85 -47 198q0 158 86.5 251.5t235.5 93.5q120 0 203 -64l86 87l77 -74l-93 -94q48 -84 48 -200q0 -158 -86 -251.5t-235 -93.5zM192 335q0 -46 6 -79l257 258q-35 21 -101 21
q-89 0 -125.5 -42.5t-36.5 -157.5zM354 135q89 0 125 42.5t36 157.5q0 47 -6 82l-258 -259q34 -23 103 -23z" />
    <glyph glyph-name="oslashacute" unicode="&#x1ff;" horiz-adv-x="569" 
d="M357 560h-159v5l111 125h204v-5zM286 -10q-101 0 -169 52l-74 -67l-55 60l76 69q-36 60 -36 147q0 121 68.5 191.5t189.5 70.5q101 0 167 -52l72 65l55 -60l-74 -68q35 -61 35 -147q0 -120 -67.5 -190.5t-187.5 -70.5zM176 251q0 -18 2 -42l174 159q-23 13 -66 13
q-62 0 -86 -28.5t-24 -101.5zM286 122q61 0 85 28t24 101q0 18 -2 44l-175 -160q25 -13 68 -13z" />
    <glyph glyph-name="Scommaaccent" unicode="&#x218;" horiz-adv-x="619" 
d="M335 -10q-288 0 -288 228v13h147v-10q0 -56 29 -75.5t119 -19.5q62 0 84 13.5t22 48.5q0 36 -18.5 51t-85.5 26l-118 21q-182 31 -182 191q0 85 66.5 144t200.5 59q137 0 204 -63t67 -169v-8h-148v11q0 53 -27 73t-101 20q-63 0 -88 -14.5t-25 -46.5t18 -44.5t78 -23.5
l119 -23q189 -36 189 -199q0 -88 -64 -145.5t-198 -57.5zM271 -200h-139v5l80 125h187v-5z" />
    <glyph glyph-name="scommaaccent" unicode="&#x219;" horiz-adv-x="505" 
d="M267 -10q-235 0 -235 181v3h143v-21q0 -27 19.5 -36t75.5 -9q44 0 57.5 7t13.5 27t-15 28t-66 17l-76 14q-77 14 -115 49.5t-38 103.5q0 72 57 115.5t162 43.5q96 0 156.5 -44.5t60.5 -126.5v-14h-143v14q0 27 -16 39t-62 12q-43 0 -58.5 -9t-15.5 -28q0 -18 12.5 -26
t56.5 -17l92 -19q79 -15 114.5 -51.5t35.5 -98.5q0 -71 -56.5 -112.5t-159.5 -41.5zM215 -200h-139v5l80 125h187v-5z" />
    <glyph glyph-name="Tcommaaccent" unicode="&#x21a;" horiz-adv-x="586" 
d="M368 0h-150v535h-216v135h582v-135h-216v-535zM251 -200h-139v5l80 125h187v-5z" />
    <glyph glyph-name="tcommaaccent" unicode="&#x21b;" horiz-adv-x="400" 
d="M278 -2q-100 0 -147 39.5t-47 127.5v214h-80v124h84l28 117h118v-117h142v-124h-142v-197q0 -32 15 -40.5t65 -8.5h62v-125q-48 -10 -98 -10zM176 -200h-139v5l80 125h187v-5z" />
    <glyph glyph-name="dotlessj" unicode="&#x237;" horiz-adv-x="244" 
d="M-49 -168v126h40q37 0 47 8t10 36v501h150v-478q0 -108 -52 -151.5t-152 -43.5q-17 0 -43 2z" />
    <glyph glyph-name="circumflex" unicode="&#x2c6;" horiz-adv-x="600" 
d="M237 560h-144v5l104 125h178l103 -125v-5h-144l-43 56h-11z" />
    <glyph glyph-name="caron" unicode="&#x2c7;" horiz-adv-x="600" 
d="M375 560h-178l-104 125v5h144l43 -56h11l43 56h144v-5z" />
    <glyph glyph-name="breve" unicode="&#x2d8;" horiz-adv-x="600" 
d="M282 550q-68 0 -109.5 34.5t-41.5 92.5v14h105v-10q0 -23 9.5 -31.5t36.5 -8.5t36 8t9 32v10h105v-14q0 -58 -41 -92.5t-109 -34.5z" />
    <glyph glyph-name="dotaccent" unicode="&#x2d9;" horiz-adv-x="600" 
d="M342 560h-149v132h149v-132z" />
    <glyph glyph-name="ring" unicode="&#x2da;" horiz-adv-x="600" 
d="M270 544q-46 0 -74 24t-28 64t28 64t74 24t74 -24t28 -64t-28 -64t-74 -24zM270 605q22 0 30 5.5t8 21.5t-8 21.5t-30 5.5t-30 -5.5t-8 -21.5t8 -21.5t30 -5.5z" />
    <glyph glyph-name="ogonek" unicode="&#x2db;" horiz-adv-x="600" 
d="M364 -187h-94q-96 0 -96 68q0 40 47 91l25 28h99l-44 -56q-13 -14 -13 -27q0 -14 23 -14h53v-90z" />
    <glyph glyph-name="tilde" unicode="&#x2dc;" horiz-adv-x="600" 
d="M211 558h-100v39q0 106 86 106q23 0 66 -17l48 -21q25 -11 37 -11q16 0 16 21v19h100v-47q0 -42 -19 -70t-63 -28q-28 0 -78 20l-51 22q-24 8 -28 8q-14 0 -14 -19v-22z" />
    <glyph glyph-name="hungarumlaut" unicode="&#x2dd;" horiz-adv-x="600" 
d="M208 560h-128v5l66 125h170v-5zM414 560h-128v5l66 125h170v-5z" />
    <glyph glyph-name="gravecomb" unicode="&#x300;" horiz-adv-x="568" 
d="M423 560h-159l-156 125v5h204l111 -125v-5z" />
    <glyph glyph-name="acutecomb" unicode="&#x301;" horiz-adv-x="568" 
d="M307 560h-159v5l111 125h204v-5z" />
    <glyph glyph-name="circumflexcomb" unicode="&#x302;" horiz-adv-x="572" 
d="M237 560h-144v5l104 125h178l103 -125v-5h-144l-43 56h-11z" />
    <glyph glyph-name="tildecomb" unicode="&#x303;" horiz-adv-x="576" 
d="M211 558h-100v39q0 106 86 106q23 0 66 -17l48 -21q25 -11 37 -11q16 0 16 21v19h100v-47q0 -42 -19 -70t-63 -28q-28 0 -78 20l-51 22q-24 8 -28 8q-14 0 -14 -19v-22z" />
    <glyph glyph-name="macroncomb" unicode="&#x304;" horiz-adv-x="564" 
d="M436 572h-307v105h307v-105z" />
    <glyph glyph-name="brevecomb" unicode="&#x306;" horiz-adv-x="563" 
d="M282 550q-68 0 -109.5 34.5t-41.5 92.5v14h105v-10q0 -23 9.5 -31.5t36.5 -8.5t36 8t9 32v10h105v-14q0 -58 -41 -92.5t-109 -34.5z" />
    <glyph glyph-name="dotaccentcomb" unicode="&#x307;" horiz-adv-x="535" 
d="M342 560h-149v132h149v-132z" />
    <glyph glyph-name="dieresiscomb" unicode="&#x308;" horiz-adv-x="576" 
d="M466 560h-148v132h148v-132zM258 560h-147v132h147v-132z" />
    <glyph glyph-name="ringcomb" unicode="&#x30a;" horiz-adv-x="540" 
d="M270 544q-46 0 -74 24t-28 64t28 64t74 24t74 -24t28 -64t-28 -64t-74 -24zM270 605q22 0 30 5.5t8 21.5t-8 21.5t-30 5.5t-30 -5.5t-8 -21.5t8 -21.5t30 -5.5z" />
    <glyph glyph-name="hungarumlautcomb" unicode="&#x30b;" horiz-adv-x="597" 
d="M208 560h-128v5l66 125h170v-5zM414 560h-128v5l66 125h170v-5z" />
    <glyph glyph-name="caroncomb" unicode="&#x30c;" horiz-adv-x="572" 
d="M375 560h-178l-104 125v5h144l43 -56h11l43 56h144v-5z" />
    <glyph glyph-name="commaturnedabovecomb" unicode="&#x312;" horiz-adv-x="600" 
d="M314 690h139v-5l-80 -125h-188v5z" />
    <glyph glyph-name="commaaccentcomb" unicode="&#x326;" horiz-adv-x="562" 
d="M276 -200h-139v5l80 125h187v-5z" />
    <glyph glyph-name="cedillacomb" unicode="&#x327;" horiz-adv-x="553" 
d="M278 -229h-102v79h100q28 0 28 18q0 11 -6 14.5t-22 3.5h-76v117h79v-46h5q51 0 79.5 -24.5t28.5 -66.5q0 -44 -30 -69.5t-84 -25.5z" />
    <glyph glyph-name="ogonekcomb" unicode="&#x328;" horiz-adv-x="539" 
d="M364 -187h-94q-96 0 -96 68q0 40 47 91l25 28h99l-44 -56q-13 -14 -13 -27q0 -14 23 -14h53v-90z" />
    <glyph glyph-name="strokeshortcomb" unicode="&#x335;" horiz-adv-x="605" 
d="M492 496h-420v111h420v-111z" />
    <glyph glyph-name="strokelongcomb" unicode="&#x336;" horiz-adv-x="625" 
d="M682 472h-740v130h740v-130z" />
    <glyph glyph-name="slashshortcomb" unicode="&#x337;" horiz-adv-x="553" 
d="M465 424l-335 -159l-42 86l335 159z" />
    <glyph glyph-name="slashlongcomb" unicode="&#x338;" horiz-adv-x="596" 
d="M594 466l-537 -491l-55 60l537 491z" />
    <glyph glyph-name="Omega" unicode="&#x3a9;" horiz-adv-x="739" 
d="M337 0h-298v135h89q-96 66 -96 216q0 127 90.5 213t247.5 86t247.5 -86t90.5 -213q0 -150 -97 -216h90v-135h-298v135h16q74 3 101 51t27 133q0 99 -43.5 142.5t-133.5 43.5q-89 0 -133.5 -44t-44.5 -142q0 -85 27.5 -133.5t102.5 -50.5h15v-135z" />
    <glyph glyph-name="pi" unicode="&#x3c0;" horiz-adv-x="716" 
d="M116 0v379h-112v124h666v-124h-120v-201q0 -32 15 -40.5t65 -8.5h40v-125q-37 -10 -76 -10q-100 0 -147 39.5t-47 127.5v218h-134v-379h-150z" />
    <glyph glyph-name="Wgrave" unicode="&#x1e80;" horiz-adv-x="986" 
d="M568 730h-159l-156 126v5h204l111 -126v-5zM363 0h-220l-135 670h174l51 -302l24 -221h11l41 221l79 302h213l79 -300l42 -223h11l24 223l51 300h170l-135 -670h-219l-81 297l-45 212h-10l-45 -212z" />
    <glyph glyph-name="wgrave" unicode="&#x1e81;" horiz-adv-x="834" 
d="M511 560h-159l-156 125v5h204l111 -125v-5zM321 0h-196l-117 503h165l33 -232l19 -151h11l28 151l61 232h191l62 -233l27 -150h10l18 150l35 233h158l-117 -503h-196l-65 239l-25 132h-11l-25 -132z" />
    <glyph glyph-name="Wacute" unicode="&#x1e82;" horiz-adv-x="986" 
d="M583 730h-159v5l111 126h204v-5zM363 0h-220l-135 670h174l51 -302l24 -221h11l41 221l79 302h213l79 -300l42 -223h11l24 223l51 300h170l-135 -670h-219l-81 297l-45 212h-10l-45 -212z" />
    <glyph glyph-name="wacute" unicode="&#x1e83;" horiz-adv-x="834" 
d="M507 560h-159v5l111 125h204v-5zM321 0h-196l-117 503h165l33 -232l19 -151h11l28 151l61 232h191l62 -233l27 -150h10l18 150l35 233h158l-117 -503h-196l-65 239l-25 132h-11l-25 -132z" />
    <glyph glyph-name="Wdieresis" unicode="&#x1e84;" horiz-adv-x="986" 
d="M670 730h-147v132h147v-132zM463 730h-147v132h147v-132zM363 0h-220l-135 670h174l51 -302l24 -221h11l41 221l79 302h213l79 -300l42 -223h11l24 223l51 300h170l-135 -670h-219l-81 297l-45 212h-10l-45 -212z" />
    <glyph glyph-name="wdieresis" unicode="&#x1e85;" horiz-adv-x="834" 
d="M595 560h-148v132h148v-132zM387 560h-147v132h147v-132zM321 0h-196l-117 503h165l33 -232l19 -151h11l28 151l61 232h191l62 -233l27 -150h10l18 150l35 233h158l-117 -503h-196l-65 239l-25 132h-11l-25 -132z" />
    <glyph glyph-name="Etilde" unicode="&#x1ebc;" horiz-adv-x="596" 
d="M226 727h-100v39q0 107 86 107q25 0 66 -18l48 -20q27 -12 37 -12q16 0 16 22v18h100v-46q0 -43 -19 -71t-63 -28q-25 0 -78 21l-51 21q-22 9 -28 9q-14 0 -14 -20v-22zM558 0h-511v670h511v-135h-361v-131h346v-134h-346v-135h361v-135z" />
    <glyph glyph-name="etilde" unicode="&#x1ebd;" horiz-adv-x="553" 
d="M199 558h-100v39q0 106 86 106q23 0 66 -17l48 -21q25 -11 37 -11q16 0 16 21v19h100v-47q0 -42 -19 -70t-63 -28q-28 0 -78 20l-51 22q-24 8 -28 8q-14 0 -14 -19v-22zM280 -10q-126 0 -189 68.5t-63 191.5q0 121 68 192t185 71q112 0 176 -60.5t64 -160.5q0 -34 -7 -74
h-345q2 -53 27 -75.5t86 -22.5q86 0 86 44v6h148v-10q0 -80 -63.5 -125t-172.5 -45zM276 390q-52 0 -76.5 -20t-29.5 -61h207q2 39 -23.5 60t-77.5 21z" />
    <glyph glyph-name="Ygrave" unicode="&#x1ef2;" horiz-adv-x="668" 
d="M409 730h-159l-156 126v5h204l111 -126v-5zM409 0h-150v242l-261 428h170l105 -176l58 -99h10l57 99l105 176h167l-261 -428v-242z" />
    <glyph glyph-name="ygrave" unicode="&#x1ef3;" horiz-adv-x="579" 
d="M383 560h-159l-156 125v5h204l111 -125v-5zM151 -170q-46 0 -92 11v124h84q30 0 43 7t24 30l9 19l-211 482h167l82 -210l36 -97h11l31 97l71 210h167l-224 -538q-32 -76 -77 -105.5t-121 -29.5z" />
    <glyph glyph-name="Ytilde" unicode="&#x1ef8;" horiz-adv-x="668" 
d="M257 727h-100v39q0 107 86 107q25 0 66 -18l48 -20q27 -12 37 -12q16 0 16 22v18h100v-46q0 -43 -19 -71t-63 -28q-26 0 -78 21l-51 21q-22 9 -28 9q-14 0 -14 -20v-22zM409 0h-150v242l-261 428h170l105 -176l58 -99h10l57 99l105 176h167l-261 -428v-242z" />
    <glyph glyph-name="ytilde" unicode="&#x1ef9;" horiz-adv-x="579" 
d="M212 558h-100v39q0 106 86 106q23 0 66 -17l48 -21q25 -11 37 -11q16 0 16 21v19h100v-47q0 -42 -19 -70t-63 -28q-28 0 -78 20l-51 22q-24 8 -28 8q-14 0 -14 -19v-22zM151 -170q-46 0 -92 11v124h84q30 0 43 7t24 30l9 19l-211 482h167l82 -210l36 -97h11l31 97l71 210
h167l-224 -538q-32 -76 -77 -105.5t-121 -29.5z" />
    <glyph glyph-name="endash" unicode="&#x2013;" horiz-adv-x="537" 
d="M525 231h-513v128h513v-128z" />
    <glyph glyph-name="emdash" unicode="&#x2014;" horiz-adv-x="954" 
d="M942 231h-930v128h930v-128z" />
    <glyph glyph-name="quoteleft" unicode="&#x2018;" horiz-adv-x="252" 
d="M160 670h50v-98h-46q-16 0 -23 -6.5t-7 -25.5v-18h80v-177h-188v193q0 132 134 132z" />
    <glyph glyph-name="quoteright" unicode="&#x2019;" horiz-adv-x="252" 
d="M84 345h-50v98h46q16 0 23 6.5t7 25.5v18h-80v177h188v-193q0 -132 -134 -132z" />
    <glyph glyph-name="quotesinglbase" unicode="&#x201a;" horiz-adv-x="236" 
d="M86 -148h-50v98h46q16 0 23 6.5t7 25.5v18h-80v177h188v-193q0 -132 -134 -132z" />
    <glyph glyph-name="quotedblleft" unicode="&#x201c;" horiz-adv-x="499" 
d="M160 670h50v-98h-46q-16 0 -23 -6.5t-7 -25.5v-18h80v-177h-188v193q0 132 134 132zM399 670h50v-98h-46q-16 0 -23 -6.5t-7 -25.5v-18h80v-177h-188v193q0 132 134 132z" />
    <glyph glyph-name="quotedblright" unicode="&#x201d;" horiz-adv-x="499" 
d="M338 345h-50v98h46q16 0 23 6.5t7 25.5v18h-80v177h188v-193q0 -132 -134 -132zM100 345h-50v98h46q16 0 23 6.5t7 25.5v18h-80v177h188v-193q0 -132 -134 -132z" />
    <glyph glyph-name="quotedblbase" unicode="&#x201e;" horiz-adv-x="475" 
d="M86 -148h-50v98h46q16 0 23 6.5t7 25.5v18h-80v177h188v-193q0 -132 -134 -132zM325 -148h-50v98h46q16 0 23 6.5t7 25.5v18h-80v177h188v-193q0 -132 -134 -132z" />
    <glyph glyph-name="dagger" unicode="&#x2020;" horiz-adv-x="450" 
d="M299 0h-149v379h-142v124h142v167h149v-167h143v-124h-143v-379z" />
    <glyph glyph-name="daggerdbl" unicode="&#x2021;" horiz-adv-x="450" 
d="M299 0h-149v167h-142v124h142v88h-142v124h142v167h149v-167h143v-124h-143v-88h143v-124h-143v-167z" />
    <glyph glyph-name="bullet" unicode="&#x2022;" horiz-adv-x="393" 
d="M197 190q-62 0 -103.5 39.5t-41.5 105.5t41.5 105.5t103.5 39.5q61 0 103 -39.5t42 -105.5t-42 -105.5t-103 -39.5z" />
    <glyph glyph-name="ellipsis" unicode="&#x2026;" horiz-adv-x="766" 
d="M228 0h-188v177h188v-177zM477 0h-188v177h188v-177zM726 0h-188v177h188v-177z" />
    <glyph glyph-name="perthousand" unicode="&#x2030;" horiz-adv-x="1179" 
d="M194 348q-81 0 -128.5 44.5t-47.5 121.5t47.5 121.5t128.5 44.5t128 -44.5t47 -121.5t-47 -121.5t-128 -44.5zM223 0h-137l483 670h136zM194 450q36 0 49.5 13t13.5 51t-13.5 51t-49.5 13t-49.5 -13t-13.5 -51t13.5 -51t49.5 -13zM985 -10q-81 0 -128.5 44.5t-47.5 121.5
t47.5 121.5t128.5 44.5t128.5 -44.5t47.5 -121.5t-47.5 -121.5t-128.5 -44.5zM598 -10q-81 0 -128.5 44.5t-47.5 121.5t47.5 121.5t128.5 44.5t128 -44.5t47 -121.5t-47 -121.5t-128 -44.5zM985 92q36 0 49.5 13t13.5 51t-13.5 51t-49.5 13t-49.5 -13t-13.5 -51t13.5 -51
t49.5 -13zM598 92q36 0 49.5 13t13.5 51t-13.5 51t-49.5 13t-49.5 -13t-13.5 -51t13.5 -51t49.5 -13z" />
    <glyph glyph-name="guilsinglleft" unicode="&#x2039;" horiz-adv-x="260" 
d="M30 388l200 134v-153l-99 -59v-10l99 -59v-153l-200 134v166z" />
    <glyph glyph-name="guilsinglright" unicode="&#x203a;" horiz-adv-x="260" 
d="M230 222l-200 -134v153l99 59v10l-99 59v153l200 -134v-166z" />
    <glyph glyph-name="fraction" unicode="&#x2044;" horiz-adv-x="249" 
d="M-48 0h-137l483 670h136z" />
    <glyph glyph-name="zero.superior" unicode="&#x2070;" horiz-adv-x="386" 
d="M193 325q-80 0 -127.5 47.5t-47.5 129.5t47.5 130t127.5 48t127.5 -48t47.5 -130t-47.5 -129.5t-127.5 -47.5zM193 427q37 0 49.5 15t12.5 60q0 46 -12.5 61t-49.5 15t-49.5 -15t-12.5 -61q0 -45 12.5 -60t49.5 -15z" />
    <glyph glyph-name="four.superior" unicode="&#x2074;" horiz-adv-x="379" 
d="M313 335h-106v65h-189v83l177 187h118v-176h48v-94h-48v-65zM129 494h78v79h-6l-72 -74v-5z" />
    <glyph glyph-name="Euro" unicode="&#x20ac;" horiz-adv-x="732" 
d="M395 -10q-118 0 -197 59t-108 164h-80v96h65q-1 8 -1 26t1 26h-65v96h80q29 105 108 164t197 59q147 0 226 -72t79 -198v-5h-160v8q0 69 -33 96.5t-113 27.5q-60 0 -95 -18t-51 -62h211v-96h-227v-26v-26h227v-96h-211q16 -44 51 -62t95 -18q80 0 113 27.5t33 96.5v8h160
v-5q0 -126 -79 -198t-226 -72z" />
    <glyph glyph-name="indianrupee" unicode="&#x20b9;" horiz-adv-x="583" 
d="M532 0h-180l-140 165q-27 33 -54.5 47t-76.5 14h-53v126h180q37 0 56.5 9.5t26.5 32.5h-263v118h268v39h-268v119h529v-119h-111v-39h111v-118h-116q-27 -123 -165 -124v-5q38 -14 67.5 -41t67.5 -73z" />
    <glyph glyph-name="trademark" unicode="&#x2122;" horiz-adv-x="565" 
d="M340 469h-65v201h89l46 -125h3l44 125h90v-201h-65v67l2 38h-4l-32 -93h-75l-33 93h-3l3 -38v-67zM166 469h-71v135h-77v66h225v-66h-77v-135z" />
    <glyph glyph-name="Ohm" unicode="&#x2126;" horiz-adv-x="739" 
d="M337 0h-298v135h89q-96 66 -96 216q0 127 90.5 213t247.5 86t247.5 -86t90.5 -213q0 -150 -97 -216h90v-135h-298v135h16q74 3 101 51t27 133q0 99 -43.5 142.5t-133.5 43.5q-89 0 -133.5 -44t-44.5 -142q0 -85 27.5 -133.5t102.5 -50.5h15v-135z" />
    <glyph glyph-name="estimated" unicode="&#x212e;" horiz-adv-x="726" 
d="M374 -10q-173 0 -263.5 91t-90.5 254q0 159 90 252t255 93q178 0 262.5 -101t78.5 -285h-458v-138q45 -21 130 -21q65 0 109 24.5t44 76.5h160q0 -108 -88 -177t-229 -69zM248 514v-90h230v90q-49 21 -113 21q-68 0 -117 -21z" />
    <glyph glyph-name="partialdiff" unicode="&#x2202;" horiz-adv-x="663" 
d="M277 -10q-119 0 -180.5 49.5t-61.5 146.5q0 100 71.5 164t189.5 64q134 0 170 -80h5q15 53 15 103q0 46 -30 72t-89 26h-154v145h162q261 0 261 -238q0 -203 -92.5 -327.5t-266.5 -124.5zM297 134q70 0 105.5 20.5t35.5 70.5q0 38 -25.5 53t-87.5 15q-71 0 -106 -20.5
t-35 -74.5q0 -35 25.5 -49.5t87.5 -14.5z" />
    <glyph glyph-name="product" unicode="&#x220f;" horiz-adv-x="686" 
d="M213 -125h-150v795h556v-795h-150v660h-256v-660z" />
    <glyph glyph-name="summation" unicode="&#x2211;" horiz-adv-x="547" 
d="M536 -125h-485v126l162 153l116 113v10l-121 114l-157 153v126h485v-131h-219l-71 2v-10l40 -30l173 -171v-115l-173 -170l-40 -30v-11l71 3h219v-132z" />
    <glyph glyph-name="minus" unicode="&#x2212;" horiz-adv-x="500" 
d="M476 273h-447v124h447v-124z" />
    <glyph glyph-name="radical" unicode="&#x221a;" horiz-adv-x="776" 
d="M577 0h-190l-144 372l-164 -92l-71 120l184 103h167l120 -359h11l176 526h164z" />
    <glyph glyph-name="infinity" unicode="&#x221e;" horiz-adv-x="768" 
d="M229 123q-88 0 -139.5 56t-51.5 156t51.5 156t139.5 56q54 0 92 -26t49 -71q53 97 171 97q88 0 139.5 -56t51.5 -156t-51.5 -156t-139.5 -56q-55 0 -92.5 26.5t-48.5 72.5q-55 -99 -171 -99zM525 419q-33 0 -51.5 -25.5t-35.5 -77.5q10 -65 78 -65q74 0 74 84t-65 84z
M180 335q0 -84 66 -84q23 0 40 16t25.5 35t20.5 54q-12 63 -78 63q-74 0 -74 -84z" />
    <glyph glyph-name="integral" unicode="&#x222b;" horiz-adv-x="348" 
d="M0 -166v113h37q29 0 42.5 10t13.5 35v486q0 92 54.5 143t160.5 51q19 0 27 -2v-112h-37q-28 0 -41.5 -10.5t-13.5 -35.5v-485q0 -92 -54.5 -143.5t-160.5 -51.5q-10 0 -28 2z" />
    <glyph glyph-name="approxequal" unicode="&#x2248;" horiz-adv-x="545" 
d="M154 157h-126v62q0 79 55 107v4h-55v53q0 135 120 135q37 0 84 -18l71 -27q48 -16 66 -16q23 0 23 23v29h125v-60q0 -84 -56 -109v-4h56v-56q0 -130 -107 -130q-45 0 -116 26l-66 24q-28 10 -46 10q-28 0 -28 -27v-26zM386 276q28 0 28 28v21q-2 0 -4 -1h-3
q-39 0 -111 28l-72 25q-33 14 -55 14q-36 0 -36 -32v-16h12q41 0 82 -16l81 -31q58 -20 78 -20z" />
    <glyph glyph-name="notequal" unicode="&#x2260;" horiz-adv-x="516" 
d="M487 151h-270l-62 -115l-95 49l36 66h-56v123h122l66 122h-188v123h254l64 118l95 -49l-37 -69h71v-123h-138l-66 -122h204v-123z" />
    <glyph glyph-name="lessequal" unicode="&#x2264;" horiz-adv-x="506" 
d="M477 14h-447v124h314v11l-314 97v178l447 141v-140l-312 -85v-10l312 -85v-231z" />
    <glyph glyph-name="greaterequal" unicode="&#x2265;" horiz-adv-x="506" 
d="M476 14h-447v231l312 85v10l-312 85v140l447 -141v-178l-314 -97v-11h314v-124z" />
    <glyph glyph-name="lozenge" unicode="&#x25ca;" horiz-adv-x="586" 
d="M289 82h11l94 207l-94 207h-11l-94 -207zM388 -44h-191l-169 333l169 333h191l170 -333z" />
    <glyph glyph-name="t_t" horiz-adv-x="722" 
d="M255 -2q-88 0 -131.5 39.5t-43.5 127.5v214h-72v124h76l28 117h118v-117h177l28 117h118v-117h142v-124h-142v-197q0 -32 15 -40.5t65 -8.5h62v-125q-48 -10 -98 -10q-100 0 -147 39.5t-47 127.5v214h-173v-197q0 -33 15 -41t71 -8h38v-125q-48 -10 -99 -10z" />
    <glyph glyph-name="tcaron_t" horiz-adv-x="722" 
d="M306 529h-47v89h43q15 0 21 5.5t6 22.5v16h-76v156h173v-170q0 -119 -120 -119zM255 -2q-88 0 -131.5 39.5t-43.5 127.5v214h-72v124h76l28 117h118v-117h177l28 117h118v-117h142v-124h-142v-197q0 -32 15 -40.5t65 -8.5h62v-125q-48 -10 -98 -10q-100 0 -147 39.5
t-47 127.5v214h-173v-197q0 -33 15 -41t71 -8h38v-125q-48 -10 -99 -10z" />
    <glyph glyph-name="IJacute" horiz-adv-x="816" 
d="M212 730h-159v5l111 126h204v-5zM783 730h-159v5l111 126h204v-5zM197 0h-150v670h150v-670zM511 -10q-142 0 -206.5 68.5t-64.5 198.5v20h159v-27q0 -68 19.5 -91.5t87.5 -23.5q67 0 86.5 23.5t19.5 91.5v420h160v-407q0 -273 -261 -273z" />
    <glyph glyph-name="idotaccent" horiz-adv-x="228" 
d="M187 560h-147l-2 110h149v-110zM190 0h-150v503h150v-503z" />
    <glyph glyph-name="ijacute" horiz-adv-x="490" 
d="M202 560h-159v5l111 125h204v-5zM458 560h-159v5l111 125h204v-5zM188 0h-150v503h150v-503zM197 -168v126h40q37 0 47 8t10 36v501h150v-478q0 -108 -52 -151.5t-152 -43.5q-17 0 -43 2z" />
    <glyph glyph-name="acutecomb.case" horiz-adv-x="568" 
d="M308 730h-159v5l111 126h204v-5z" />
    <glyph glyph-name="brevecomb.case" horiz-adv-x="563" 
d="M282 720q-68 0 -109.5 34.5t-41.5 92.5v14h105v-10q0 -23 9.5 -31.5t36.5 -8.5t36 8t9 32v10h105v-14q0 -58 -41 -92.5t-109 -34.5z" />
    <glyph glyph-name="caroncomb.alt" horiz-adv-x="581" 
d="M257 381h-47v89h43q15 0 21 5.5t6 22.5v16h-76v156h173v-170q0 -119 -120 -119z" />
    <glyph glyph-name="caroncomb.alt.case" horiz-adv-x="600" 
d="M267 381h-48v89h43q15 0 21 5.5t6 22.5v16h-76v156h174v-170q0 -119 -120 -119z" />
    <glyph glyph-name="caroncomb.case" horiz-adv-x="574" 
d="M337 860h144v-5l-104 -125h-178l-103 125v5h144l43 -56h11z" />
    <glyph glyph-name="cedillacomb.case" horiz-adv-x="553" 
d="M278 -229h-102v79h100q28 0 28 18q0 11 -6 14.5t-22 3.5h-76v117h79v-46h5q51 0 79.5 -24.5t28.5 -66.5q0 -44 -30 -69.5t-84 -25.5z" />
    <glyph glyph-name="circumflexcomb.case" horiz-adv-x="574" 
d="M237 730h-144v5l104 125h178l103 -125v-5h-144l-43 56h-11z" />
    <glyph glyph-name="commaaccentcomb.case" horiz-adv-x="562" 
d="M265 -200h-139v5l80 125h187v-5z" />
    <glyph glyph-name="dieresiscomb.case" horiz-adv-x="576" 
d="M461 730h-147v132h147v-132zM254 730h-147v132h147v-132z" />
    <glyph glyph-name="dotaccentcomb.case" horiz-adv-x="535" 
d="M342 730h-149v132h149v-132z" />
    <glyph glyph-name="gravecomb.case" horiz-adv-x="562" 
d="M421 730h-159l-156 126v5h204l111 -126v-5z" />
    <glyph glyph-name="hungarumlautcomb.case" horiz-adv-x="597" 
d="M413 730h-128v5l67 126h169v-5zM208 730h-129v5l67 126h170v-5z" />
    <glyph glyph-name="macroncomb.case" horiz-adv-x="564" 
d="M436 743h-307v104h307v-104z" />
    <glyph glyph-name="ogonekcomb.case" horiz-adv-x="539" 
d="M364 -187h-94q-96 0 -96 68q0 40 47 91l25 28h99l-44 -56q-13 -14 -13 -27q0 -14 23 -14h53v-90z" />
    <glyph glyph-name="ringcomb.case" horiz-adv-x="540" 
d="M270 714q-46 0 -74 24t-28 64t28 64t74 24t74 -24t28 -64t-28 -64t-74 -24zM270 775q22 0 30 5.5t8 21.5t-8 21.5t-30 5.5t-30 -5.5t-8 -21.5t8 -21.5t30 -5.5z" />
    <glyph glyph-name="slashlongcomb.case" horiz-adv-x="623" 
d="M678 629l-657 -660l-77 74l657 660z" />
    <glyph glyph-name="slashshortcomb.case" horiz-adv-x="602" 
d="M476 370l-394 -162v140l394 162v-140z" />
    <glyph glyph-name="strokeshortcomb.case" horiz-adv-x="600" 
d="M543 263h-485v135h485v-135z" />
    <glyph glyph-name="tildecomb.case" horiz-adv-x="576" 
d="M211 727h-100v39q0 107 86 107q25 0 66 -18l48 -20q27 -12 37 -12q16 0 16 22v18h100v-46q0 -43 -19 -71t-63 -28q-25 0 -78 21l-51 21q-22 9 -28 9q-14 0 -14 -20v-22z" />
    <glyph glyph-name="d.component" horiz-adv-x="631" 
d="M247 -10q-105 0 -161.5 61.5t-56.5 168.5t55 169t157 62q55 0 94.5 -21.5t57.5 -54.5h6v295h150v-670h-139v73h-6q-40 -83 -157 -83zM179 220q0 -54 23.5 -78.5t86.5 -24.5q55 0 82.5 21t27.5 68v29q0 47 -27.5 68t-82.5 21q-63 0 -86.5 -25t-23.5 -79z" />
    <glyph glyph-name="h.component" horiz-adv-x="628" 
d="M232 0h-150v670h150v-307h5q23 39 64.5 63.5t97.5 24.5q93 0 138.5 -54t45.5 -140v-257h-150v227q0 53 -21.5 74t-77.5 21q-55 0 -78.5 -22t-23.5 -78v-222z" />
    <glyph glyph-name="ITF" horiz-adv-x="1719" 
d="M100 0v700h216v-700h-216zM361 496v204h216v-204h-216zM621 0v700h217v-700h-217zM882 496v204h216v-204h-216zM1142 0v700h217v-700h-217zM1403 496v204h216v-204h-216zM1403 247v205h216v-205h-216z" />
    </font>
</defs>
</svg>
